Ивановский Торрент трекер
Яндекс.Погода
 

[Цитировать]
HUNTER

Кукловоды / The Puppet Masters

-
-Страна:
Жанр: ужасы, боевик, фантастика, триллер
Год выпуска: 1994
Продолжительность: 01:48:55
Перевод 1: Профессиональный (двухголосый закадровый) - Видеосервис
Перевод 2: Профессиональный (многоголосый закадровый) - ОРТ
Перевод 3: Профессиональный (двухголосый закадровый) - НТВ+
Перевод 4: Авторский (одноголосый закадровый) - Кузнецов
Оригинальная аудиодорожка: Английский
Cубтитры: Русские, английские-Режиссер: Стюарт Орми / Stuart Orme-В ролях: Дональд Сазерленд, Эрик Тал, Джули Уорнер, Кит Дэвид, Уилл Пэттон, Ричард Белзер, Том Мэйсон, Яфет Котто, Джерри Бэммен, Сэм Андерсон и др.-Описание: Экранизация одноименного романа Р. Хайнлайна. По местному каналу новостей одного небольшого городка США проходит сообщение о том, что в окрестностях городка совершил посадку НЛО. Спустя некоторое время тот же канал опровергает высказанную ранее информацию, представляя ее как выдумку местных мальчишек.
Тем не менее, сотрудники секретной службы направляются туда для проверки сообщения и обнаруживают плохо скроенный макет космической «тарелки».
Чрезмерная любезность и гостеприимство местных жителей заставляют их задуматься о том, что же случилось на самом деле. Уверенность приходит в тот момент, когда на спине одного из жителей городка они обнаруживают странного вида существо-паразита явно неземного происхождения. Но предотвратить беду становится поздно — число людей, зараженных пришельцами, увеличивается не по дням, а по часам.
-- -Рип: PSYCHD
Зв. дорожки с DVO и MVO, из этой раздачи, а перевод тов. Кузнецова из этой..
Соответственно спасибо ув. tеko и edich2, а так-же тов. vladvvv (за русские субтитры)...-Тип релиза: BDRip.720p
Контейнер: MKV
Видеокодек: AVC
Видео: 1280x544 (2.35:1); 4235 Kbps; 23.976 fps
Аудио-1: Russian / 48 kHz, AC3 Dolby Digital, 2/0 (L,R) ch, ~192 kbps - Видеосервис
Аудио-2: Russian / 48 kHz, AC3 Dolby Digital, 2/0 (L,R) ch, ~192 kbps - ОРТ
Аудио-3: Russian / 48 kHz, AC3 Dolby Digital, 2/0 (L,R) ch, ~192 kbps - НТВ+
Аудио-4: Russian / 48 kHz, AC3 Dolby Digital, 2/0 (L,R) ch, ~192 kbps - Кузнецов
Аудио-5: English / 48 kHz, DTS, 2/0 (L,R) ch, 1509 kbps (внешний)
Субтитры 1: Russian / SRT (UTF-8 Plain Text) - подходят на перевод ОРТ
Субтитры 2: English / SRT (UTF-8 Plain Text)

MediaInfo

The Puppet Masters (1994)\The Puppet Masters (1994).mkv
Формат : Matroska
Версия формата : Version 4 / Version 2
Размер файла : 3,81 Гбайт
Продолжительность : 1 ч. 48 м.
Общий поток : 5005 Кбит/сек
Название фильма : Кукловоды / The Puppet Masters (1994)
Дата кодирования : UTC 2014-03-27 18:25:12
Программа кодирования : mkvmerge v6.1.0 ('Old Devil') built on Mar 2 2013 14:32:37
Библиотека кодирования : libebml v1.3.0 + libmatroska v1.4.0
Видео
Идентификатор : 1
Формат : AVC
Формат/Информация : Advanced Video Codec
Профиль формата : High@L4.1
Параметр CABAC формата : Да
Параметр ReFrames формата : 5 кадров
Идентификатор кодека : V_MPEG4/ISO/AVC
Продолжительность : 1 ч. 48 м.
Битрейт : 4235 Кбит/сек
Ширина : 1280 пикселей
Высота : 544 пикселя
Соотношение сторон : 2,35:1
Режим частоты кадров : Постоянный
Частота кадров : 23,976 кадра/сек
Цветовое пространство : YUV
Субдискретизация насыщенности : 4:2:0
Битовая глубина : 8 бит
Тип развёртки : Прогрессивная
Бит/(Пиксели*Кадры) : 0.254
Размер потока : 3,15 Гбайт (83%)
Заголовок : The Puppet Masters (1994) -=PSYCHD=-
Библиотека кодирования : x264 core 128 r2216 198a7ea
Настройки программы : cabac=1 / ref=5 / deblock=1:0:0 / analyse=0x3:0x113 / me=umh / subme=8 / psy=1 / psy_rd=1.00:0.00 / mixed_ref=1 / me_range=16 / chroma_me=1 / trellis=1 / 8x8dct=1 / cqm=0 / deadzone=21,11 / fast_pskip=1 / chroma_qp_offset=-2 / threads=12 / lookahead_threads=2 / sliced_threads=0 / nr=0 / decimate=1 / interlaced=0 / bluray_compat=0 / constrained_intra=0 / bframes=3 / b_pyramid=2 / b_adapt=2 / b_bias=0 / direct=3 / weightb=1 / open_gop=0 / weightp=2 / keyint=240 / keyint_min=24 / scenecut=40 / intra_refresh=0 / rc_lookahead=50 / rc=2pass / mbtree=1 / bitrate=4235 / ratetol=1.0 / qcomp=0.60 / qpmin=0 / qpmax=69 / qpstep=4 / cplxblur=20.0 / qblur=0.5 / ip_ratio=1.40 / aq=1:1.00
Язык : English
Default : Да
Forced : Нет
Аудио #1
Идентификатор : 2
Формат : AC-3
Формат/Информация : Audio Coding 3
Расширение режима : CM (complete main)
Параметр Endianness формата : Big
Идентификатор кодека : A_AC3
Продолжительность : 1 ч. 48 м.
Вид битрейта : Постоянный
Битрейт : 192 Кбит/сек
Каналы : 2 канала
Расположение каналов : Front: L R
Частота : 48,0 КГц
Битовая глубина : 16 бит
Метод сжатия : С потерями
Задержка видео : 13 мс.
Размер потока : 150 Мбайт (4%)
Заголовок : Двухголосый перевод. -=Видеосервис=-
Язык : Russian
Default : Да
Forced : Нет
Аудио #2
Идентификатор : 3
Формат : AC-3
Формат/Информация : Audio Coding 3
Расширение режима : CM (complete main)
Параметр Endianness формата : Big
Идентификатор кодека : A_AC3
Продолжительность : 1 ч. 48 м.
Вид битрейта : Постоянный
Битрейт : 192 Кбит/сек
Каналы : 2 канала
Расположение каналов : Front: L R
Частота : 48,0 КГц
Битовая глубина : 16 бит
Метод сжатия : С потерями
Задержка видео : 28 мс.
Размер потока : 150 Мбайт (4%)
Заголовок : Многоголосый. -=ОРТ=-
Язык : Russian
Default : Нет
Forced : Нет
Аудио #3
Идентификатор : 4
Формат : AC-3
Формат/Информация : Audio Coding 3
Расширение режима : CM (complete main)
Параметр Endianness формата : Big
Идентификатор кодека : A_AC3
Продолжительность : 1 ч. 48 м.
Вид битрейта : Постоянный
Битрейт : 192 Кбит/сек
Каналы : 2 канала
Расположение каналов : Front: L R
Частота : 48,0 КГц
Битовая глубина : 16 бит
Метод сжатия : С потерями
Задержка видео : 23 мс.
Размер потока : 150 Мбайт (4%)
Заголовок : Двухголосый перевод. НТВ+
Язык : Russian
Default : Нет
Forced : Нет
Аудио #4
Идентификатор : 5
Формат : AC-3
Формат/Информация : Audio Coding 3
Расширение режима : CM (complete main)
Параметр Endianness формата : Big
Идентификатор кодека : A_AC3
Продолжительность : 1 ч. 48 м.
Вид битрейта : Постоянный
Битрейт : 192 Кбит/сек
Каналы : 2 канала
Расположение каналов : Front: L R
Частота : 48,0 КГц
Битовая глубина : 16 бит
Метод сжатия : С потерями
Размер потока : 150 Мбайт (4%)
Заголовок : Авторский одноголосый. Кузнецов
Язык : Russian
Default : Нет
Forced : Нет
Текст #1
Идентификатор : 6
Формат : UTF-8
Идентификатор кодека : S_TEXT/UTF8
Идентификатор кодека/Информация : UTF-8 Plain Text
Язык : Russian
Default : Да
Forced : Нет
Текст #2
Идентификатор : 7
Формат : UTF-8
Идентификатор кодека : S_TEXT/UTF8
Идентификатор кодека/Информация : UTF-8 Plain Text
Язык : English
Default : Нет
Forced : Нет
Меню
00:00:00.000 : en:00:00:00.000
00:04:04.286 : en:00:04:04.286
00:16:48.216 : en:00:16:48.216
00:30:27.534 : en:00:30:27.534
00:40:07.405 : en:00:40:07.405
00:49:29.300 : en:00:49:29.300
01:01:42.240 : en:01:01:42.240
01:09:53.147 : en:01:09:53.147
01:16:33.214 : en:01:16:33.214
01:31:02.749 : en:01:31:02.749
01:37:21.461 : en:01:37:21.461
01:43:07.139 : en:01:43:07.139
Общее
Полное имя : B:\The Puppet Masters (1994)\The Puppet Masters (1994)_eng.dts
Формат : DTS
Формат/Информация : Digital Theater Systems
Размер файла : 1,15 Гбайт
Продолжительность : 1 ч. 48 м.
Режим общего битрейта : Постоянный
Общий поток : 1509 Кбит/сек
Аудио
Формат : DTS
Формат/Информация : Digital Theater Systems
Режим : 16
Параметр Endianness формата : Big
Продолжительность : 1 ч. 48 м.
Вид битрейта : Постоянный
Битрейт : 1509 Кбит/сек
Каналы : 2 канала
Расположение каналов : Front: L R
Частота : 48,0 КГц
Битовая глубина : 24 бит
Метод сжатия : С потерями
Размер потока : 1,15 Гбайт (100%)

Скриншоты



-Приятного просмотра!


Показать сообщения:    

Текущее время: 12-Дек 06:41

Часовой пояс: UTC ± 0


Вы не можете начинать темы
Вы не можете отвечать на сообщения
Вы не можете редактировать свои сообщения
Вы не можете удалять свои сообщения
Вы не можете голосовать в опросах
Вы не можете прикреплять файлы к сообщениям
Вы не можете скачивать файлы

!ВНИМАНИЕ!
Сайт не предоставляет электронные версии произведений, а занимается лишь коллекционированием и каталогизацией ссылок, присылаемых и публикуемых на форуме нашими читателями. Если вы являетесь правообладателем какого-либо представленного материала и не желаете, чтобы ссылка на него находилась в нашем каталоге, свяжитесь с нами, и мы незамедлительно удалим ее. Файлы для обмена на трекере предоставлены пользователями сайта, и администрация не несет ответственности за их содержание. Просьба не заливать файлы, защищенные авторскими правами, а также файлы нелегального содержания!