Ивановский Торрент трекер
Яндекс.Погода
 

[Цитировать]
HUNTER

-Куда приводят мечты / What Dreams May Come-
Год выпуска: 1998
Страна: США, Новая Зеландия
Жанр: фэнтези, мелодрама, драма
Продолжительность: 01:53:17
Перевод: Профессиональный (полное дублирование)
Субтитры: Русские-Режиссер: Винсент Уорд
В ролях: Робин Уильямс, Кьюба Гудинг мл., Аннабелла Шиорра, Макс Фон Сюдов, Джесика Брукс Грант, Джош Пэддок, Розалинд Чао, Люсинда Дженни, Мэгги МакКарти, Уильма Бонет-Описание:-После гибели Криса Нилсена в автокатастрофе он, обретя бессмертие, пытается остаться рядом со своей прекрасной, но смертной женой Энни. С помощью дружественного духа, приставленного к нему в качестве проводника, он начинает привыкать к своему новому существованию в окружении, которое иначе как райским не назовешь. Но когда его обезумевшая от горя жена кончает жизнь самоубийством, ее проклинают и навечно изгоняют в ад. Крис изо всех сил пытается отыскать любимую, чтобы всегда быть с ней, но еще никому и никогда не удавалось спасти грешную душу от ужасного, но заслуженного возмездия. Благодаря помощи своих небесных друзей Крис отправляется в самое опасное и мучительное путешествие в своей жизни, точнее, в жизни после смерти... -Качество: BDRip-AVC
Формат: MKV
Видео кодек: AVC
Аудио кодек: AC3
Видео: 1168x496 , 23.976 fps, 2 730 kbps avg
Аудио: 48 kHz, AC 3, 6 ch, 448 Kbps
Автор рипа: OMEGA

СЭМПЛ

Рейтинг

Рейтинг:

MI

General
Unique ID : 236875462246740610460303102111001192254 (0xB2348DF929687AB2804EF62AADD5A73E)
Complete name : G:\Новая папка\Куда приводят мечты.mkv
Format : Matroska
Format version : Version 2
File size : 2.53 GiB
Duration : 1h 53mn
Overall bit rate : 3 179 Kbps
Encoded date : UTC 2013-10-02 10:53:42
Writing application : mkvmerge v4.9.1 ('Ich will') built on Sep 21 2011 17:48:11
Writing library : libebml v1.2.1 + libmatroska v1.2.0
Video
ID : 1
Format : AVC
Format/Info : Advanced Video Codec
Format profile : High@L3.1
Format settings, CABAC : Yes
Format settings, ReFrames : 4 frames
Codec ID : V_MPEG4/ISO/AVC
Duration : 1h 53mn
Bit rate : 2 730 Kbps
Width : 1 168 pixels
Height : 496 pixels
Display aspect ratio : 2.35:1
Frame rate mode : Constant
Frame rate : 23.976 fps
Color space : YUV
Chroma subsampling : 4:2:0
Bit depth : 8 bits
Scan type : Progressive
Bits/(Pixel*Frame) : 0.197
Stream size : 2.12 GiB (84%)
Writing library : x264 core 118 r2085 8a62835
Encoding settings : cabac=1 / ref=3 / deblock=1:0:0 / analyse=0x3:0x113 / me=hex / subme=7 / psy=1 / psy_rd=1.00:0.00 / mixed_ref=1 / me_range=16 / chroma_me=1 / trellis=1 / 8x8dct=1 / cqm=0 / deadzone=21,11 / fast_pskip=1 / chroma_qp_offset=-2 / threads=18 / sliced_threads=0 / nr=0 / decimate=1 / interlaced=0 / bluray_compat=0 / constrained_intra=0 / bframes=3 / b_pyramid=2 / b_adapt=1 / b_bias=0 / direct=3 / weightb=1 / open_gop=0 / weightp=2 / keyint=250 / keyint_min=23 / scenecut=40 / intra_refresh=0 / rc_lookahead=40 / rc=2pass / mbtree=1 / bitrate=2730 / ratetol=1.0 / qcomp=0.60 / qpmin=0 / qpmax=69 / qpstep=4 / cplxblur=20.0 / qblur=0.5 / ip_ratio=1.40 / aq=1:1.00
Default : Yes
Forced : No
Audio
ID : 2
Format : AC-3
Format/Info : Audio Coding 3
Mode extension : CM (complete main)
Format settings, Endianness : Big
Codec ID : A_AC3
Duration : 1h 53mn
Bit rate mode : Constant
Bit rate : 448 Kbps
Channel(s) : 6 channels
Channel positions : Front: L C R, Side: L R, LFE
Sampling rate : 48.0 KHz
Bit depth : 16 bits
Compression mode : Lossy
Stream size : 364 MiB (14%)
Default : Yes
Forced : No

Скриншоты

- -


Показать сообщения:    

Текущее время: 15-Дек 02:46

Часовой пояс: UTC ± 0


Вы не можете начинать темы
Вы не можете отвечать на сообщения
Вы не можете редактировать свои сообщения
Вы не можете удалять свои сообщения
Вы не можете голосовать в опросах
Вы не можете прикреплять файлы к сообщениям
Вы не можете скачивать файлы

!ВНИМАНИЕ!
Сайт не предоставляет электронные версии произведений, а занимается лишь коллекционированием и каталогизацией ссылок, присылаемых и публикуемых на форуме нашими читателями. Если вы являетесь правообладателем какого-либо представленного материала и не желаете, чтобы ссылка на него находилась в нашем каталоге, свяжитесь с нами, и мы незамедлительно удалим ее. Файлы для обмена на трекере предоставлены пользователями сайта, и администрация не несет ответственности за их содержание. Просьба не заливать файлы, защищенные авторскими правами, а также файлы нелегального содержания!