Важное объявление!
У Нас Все раздачи мультитрекерные, при нуле пиров в релизах, можете смело вставать на закачку!
 
Автор Сообщение

HUNTER

Стаж:
4 года 7 месяцев
Сообщений:
61614

Репутация: 101

[+] [-]
Вне форума [Профиль] [ЛС]

Куба / Cuba
Страна: США
Жанр: приключения, военный, мелодрама
Год выпуска: 1979
Продолжительность: 02:02:08
Перевод 1: Профессиональный (многоголосый закадровый)
Перевод 2: Профессиональный (двухголосый закадровый)
Cубтитры: английские
Оригинальная аудиодорожка: английский-Режиссер: Ричард Лестер / Richard Lester-В ролях: Шон Коннери, Брук Адамс, Джек Уэстон, Гектор Элизондо, Денхолм Эллиот, Мартин Болсам, Крис Сарандон, Дэнни Де Ла Пас, Лонетт МакКи, Алехандро Рей, Луиза Мориц, Дейв Кинг, Уолтер Готелл, Дэвид Раппапорт, Вульф Моррис, Майкл Лииз, Тони Мэтьюз, Роджер Ллойд Пэк, Летисия Гарридо, Мария Чарльз-Описание: Конец 1950-х. Британского наемника Роберта Дейпса посылают на Кубу для содействия армии генерала Батисты. Предостоит сражаться с армией Кастро. На Кубе Роберт встречает свою старую любовь, которая вышла замуж. Кастро постепенно завоевывает власть на острове, а между главными героями возрождается былое чувство...-Релиз от: by delia-Рип от SbR-Качество видео: BDRip
Формат видео: MKV
Видео: 1280x694 at 23.976 fps, x264@L4.1, ~10500 kbps avg
Аудио: Russian: 48 kHz, AC3, 2/0 (L,R) ch, ~192 kbps avg |Многоголосый закадровый, Петербург 5-й канал|
Аудио: Russian: 48 kHz, AC3, 2/0 (L,R) ch, ~192 kbps avg |Двухголосый закадровый, НТВ+|
Аудио: Ukrainian: 48 kHz, AC3, 2/0 (L,R) ch, ~192 kbps avg |Многоголосый закадровый, Enter-Film|
Аудио: English: 48 kHz/16-bit, FLAC 2.0, ~288 kbps avg- -

Дополнительно

За дорожку НТВ+ спасибо edich2, за Enter-Film спасибо POMEO.
За исходный диск спасибо DinoRider, добро на перезалив получено.
Сохранены оригинальные чаптеры как на Blu-ray.

MediaInfo

Код:
Format                                   : Matroska
Format version                           : Version 4 / Version 2
File size                                : 9.70 GiB
Duration                                 : 2h 2mn
Overall bit rate mode                    : Variable
Overall bit rate                         : 11.4 Mbps
Encoded date                             : UTC 2015-11-04 06:27:05
Writing application                      : mkvmerge v8.3.0 ('Over the Horizon') 64bit
Writing library                          : libebml v1.3.1 + libmatroska v1.4.2
DURATION                                 : 01:58:42.948000000
NUMBER_OF_FRAMES                         : 1224
NUMBER_OF_BYTES                          : 45694
_STATISTICS_WRITING_APP                  : mkvmerge v8.3.0 ('Over the Horizon') 64bit
_STATISTICS_WRITING_DATE_UTC             : 2015-11-04 06:27:05
_STATISTICS_TAGS                         : BPS DURATION NUMBER_OF_FRAMES NUMBER_OF_BYTES
Attachment                               : Yes
Video
ID                                       : 1
Format                                   : AVC
Format/Info                              : Advanced Video Codec
Format profile                           : High@L4.1
Format settings, CABAC                   : Yes
Format settings, ReFrames                : 9 frames
Codec ID                                 : V_MPEG4/ISO/AVC
Duration                                 : 2h 2mn
Nominal bit rate                         : 10.5 Mbps
Width                                    : 1 280 pixels
Height                                   : 694 pixels
Display aspect ratio                     : 16:9
Frame rate                               : 23.976 fps
Color space                              : YUV
Chroma subsampling                       : 4:2:0
Bit depth                                : 8 bits
Scan type                                : Progressive
Bits/(Pixel*Frame)                       : 0.493
Writing library                          : x264 core 146 r0+2586 e393126 t_mod_Custom [8-bit@all X86_64]
Encoding settings                        : cabac=1 / ref=9 / deblock=1:-3:-3 / analyse=0x3:0x133 / me=umh / subme=11 / psy=1 / fade_compensate=0.00 / psy_rd=1.00:0.05 / mixed_ref=1 / me_range=24 / chroma_me=1 / trellis=2 / 8x8dct=1 / cqm=0 / deadzone=21,11 / fast_pskip=0 / chroma_qp_offset=-3 / threads=6 / lookahead_threads=1 / sliced_threads=0 / nr=0 / decimate=1 / interlaced=0 / bluray_compat=0 / constrained_intra=0 / fgo=0 / bframes=11 / b_pyramid=2 / b_adapt=2 / b_bias=0 / direct=3 / weightb=1 / open_gop=0 / weightp=2 / keyint=250 / keyint_min=23 / scenecut=40 / intra_refresh=0 / rc=2pass / mbtree=0 / bitrate=10500 / ratetol=1.0 / qcomp=0.70 / qpmin=0:0:0 / qpmax=69:69:69 / qpstep=4 / cplxblur=20.0 / qblur=0.5 / ip_ratio=1.30 / pb_ratio=1.20 / aq=1:0.80 / aq-sensitivity=10.00 / aq-factor=1.00:1.00:1.00 / aq2=1:0.70 / aq2-sensitivity=15.00 / aq2-factor=1.00:1.00:1.00 / aq3=1:[0.65:0.65]:[0.65:0.65]:[0.65:0.65]:[0.65:0.65] / aq3-sensitivity=10.00 / aq3-factor=[1.00:1.00]:[1.00:1.00]:[1.00:1.00] / aq3-boundary=192:64:24
Language                                 : English
Default                                  : Yes
Forced                                   : No
DURATION                                 : 02:02:08.154000000
NUMBER_OF_FRAMES                         : 175700
NUMBER_OF_BYTES                          : 9616457606
_STATISTICS_WRITING_APP                  : mkvmerge v8.3.0 ('Over the Horizon') 64bit
_STATISTICS_WRITING_DATE_UTC             : 2015-11-04 06:27:05
_STATISTICS_TAGS                         : BPS DURATION NUMBER_OF_FRAMES NUMBER_OF_BYTES
Matrix coefficients                      : BT.709-5, BT.1361, IEC 61966-2-4 709, SMPTE RP177
Audio #1
ID                                       : 2
Format                                   : AC-3
Format/Info                              : Audio Coding 3
Mode extension                           : CM (complete main)
Codec ID                                 : A_AC3
Duration                                 : 2h 2mn
Bit rate mode                            : Constant
Bit rate                                 : 192 Kbps
Channel(s)                               : 2 channels
Channel positions                        : Front: L R
Sampling rate                            : 48.0 KHz
Bit depth                                : 16 bits
Compression mode                         : Lossy
Stream size                              : 168 MiB (2%)
Title                                    : Многоголосый закадровый, Петербург 5-й канал
Language                                 : Russian
Default                                  : Yes
Forced                                   : No
Audio #2
ID                                       : 3
Format                                   : AC-3
Format/Info                              : Audio Coding 3
Mode extension                           : CM (complete main)
Codec ID                                 : A_AC3
Duration                                 : 2h 2mn
Bit rate mode                            : Constant
Bit rate                                 : 192 Kbps
Channel(s)                               : 2 channels
Channel positions                        : Front: L R
Sampling rate                            : 48.0 KHz
Bit depth                                : 16 bits
Compression mode                         : Lossy
Stream size                              : 168 MiB (2%)
Title                                    : Двухголосый закадровый, НТВ+
Language                                 : Russian
Default                                  : No
Forced                                   : No
Audio #3
ID                                       : 4
Format                                   : AC-3
Format/Info                              : Audio Coding 3
Mode extension                           : CM (complete main)
Codec ID                                 : A_AC3
Duration                                 : 2h 2mn
Bit rate mode                            : Constant
Bit rate                                 : 192 Kbps
Channel(s)                               : 2 channels
Channel positions                        : Front: L R
Sampling rate                            : 48.0 KHz
Bit depth                                : 16 bits
Compression mode                         : Lossy
Stream size                              : 168 MiB (2%)
Title                                    : Многоголосый закадровый, Enter-Film
Language                                 : Ukrainian
Default                                  : No
Forced                                   : No
Audio #4
ID                                       : 5
Format                                   : FLAC
Format/Info                              : Free Lossless Audio Codec
Codec ID                                 : A_FLAC
Duration                                 : 2h 2mn
Bit rate mode                            : Variable
Channel(s)                               : 2 channels
Sampling rate                            : 48.0 KHz
Bit depth                                : 16 bits
Title                                    : 288 Kbps
Writing library                          : libFLAC 1.2.1 (UTC 2007-09-17)
Language                                 : English
Default                                  : No
Forced                                   : No
Text
ID                                       : 6
Format                                   : UTF-8
Codec ID                                 : S_TEXT/UTF8
Codec ID/Info                            : UTF-8 Plain Text
Language                                 : English
Default                                  : No
Forced                                   : No
Menu
00:00:00.000                             : en:00:00:00.000
00:12:30.038                             : en:00:12:30.038
00:21:29.077                             : en:00:21:29.077
00:31:15.999                             : en:00:31:15.999
00:42:09.943                             : en:00:42:09.943
00:50:18.974                             : en:00:50:18.974
01:03:35.978                             : en:01:03:35.978
01:14:18.912                             : en:01:14:18.912
01:27:49.264                             : en:01:27:49.264
01:36:16.895                             : en:01:36:16.895
01:49:02.868                             : en:01:49:02.868
01:55:11.904                             : en:01:55:11.904

Скриншоты


_________________
Показать сообщения:    

Текущее время: Сегодня 18:38

Часовой пояс: GMT



Вы не можете начинать темы
Вы не можете отвечать на сообщения
Вы не можете редактировать свои сообщения
Вы не можете удалять свои сообщения
Вы не можете голосовать в опросах
Вы не можете прикреплять файлы к сообщениям
Вы не можете скачивать файлы
Наши партнеры: интернет магазин Ивановского трикотажа textilla.ru