Ивановский Торрент трекер
Яндекс.Погода
 

[Цитировать]
HUNTER

Кубанские казаки
Жанр: драма, комедия
Год выпуска: 1949
Продолжительность: 01:44:22
Режиссёр: Иван Пырьев
В ролях: Марина Ладынина, Сергей Лукьянов, Владимир Володин, Александр Хвыля, Сергей Блинников, Клара Лучко, Екатерина Савинова, Владлен Давыдов, Андрей Петров, Юрий Любимов, Борис Андреев, Е.Савицкая, Валентина Телегина, Владимир Дорофеев, Константин Сорокин, Виктор Авдюшко
Описание: На колхозной ярмарке встречаются представители двух процветающих кубанских колхозов — Галина Пересветова и Гордей Ворон. Они любят друг друга, но скрывают свои чувства, ведь Галина и Гордей — давние конкуренты. Они соревнуются в трудовых подвигах, и главное для каждого из них — вывести свой колхоз на первое место.
Качество видео: HDTV 1080i
Формат видео: MKV
Видео: x264 1920x1080 25fp 6 668 Kbps
Аудио: AC3 48000Hz stereo 384kbps

MediaInfo

General
Unique ID : 178860951886737970195903869401677909795 (0x868F5DC6A0018674A75CD5D7CEC74F23)
Complete name : C:\Documents and Settings\User\Мои документы\Кубанские казаки 1949 (1968 edit).mkv
Format : Matroska
Format version : Version 4 / Version 2
File size : 5.25 GiB
Duration : 1h 44mn
Overall bit rate : 7 195 Kbps
Encoded date : UTC 2013-11-21 16:37:31
Writing application : mkvmerge v6.2.0 ('Promised Land') built on Apr 28 2013 12:22:01
Writing library : libebml v1.3.0 + libmatroska v1.4.0
Video
ID : 1
Format : AVC
Format/Info : Advanced Video Codec
Format profile : High@L4.0
Format settings, CABAC : Yes
Format settings, ReFrames : 3 frames
Codec ID : V_MPEG4/ISO/AVC
Duration : 1h 44mn
Bit rate : 6 668 Kbps
Width : 1 920 pixels
Height : 1 080 pixels
Display aspect ratio : 16:9
Frame rate mode : Constant
Frame rate : 25.000 fps
Standard : Component
Color space : YUV
Chroma subsampling : 4:2:0
Bit depth : 8 bits
Scan type : Interlaced
Scan order : Top Field First
Bits/(Pixel*Frame) : 0.129
Stream size : 4.86 GiB (93%)
Default : Yes
Forced : No
Color primaries : BT.709
Transfer characteristics : BT.709
Matrix coefficients : BT.709
Audio
ID : 2
Format : AC-3
Format/Info : Audio Coding 3
Mode extension : CM (complete main)
Format settings, Endianness : Big
Codec ID : A_AC3
Duration : 1h 44mn
Bit rate mode : Constant
Bit rate : 384 Kbps
Channel count : 2 channels
Channel positions : Front: L R
Sampling rate : 48.0 KHz
Bit depth : 16 bits
Compression mode : Lossy
Stream size : 287 MiB (5%)
Language : Russian
Default : Yes
Forced : No

Скриншоты

Показать сообщения:    

Текущее время: 22-Окт 11:07

Часовой пояс: UTC - 1


Вы не можете начинать темы
Вы не можете отвечать на сообщения
Вы не можете редактировать свои сообщения
Вы не можете удалять свои сообщения
Вы не можете голосовать в опросах
Вы не можете прикреплять файлы к сообщениям
Вы не можете скачивать файлы

!ВНИМАНИЕ!
Сайт не предоставляет электронные версии произведений, а занимается лишь коллекционированием и каталогизацией ссылок, присылаемых и публикуемых на форуме нашими читателями. Если вы являетесь правообладателем какого-либо представленного материала и не желаете, чтобы ссылка на него находилась в нашем каталоге, свяжитесь с нами, и мы незамедлительно удалим ее. Файлы для обмена на трекере предоставлены пользователями сайта, и администрация не несет ответственности за их содержание. Просьба не заливать файлы, защищенные авторскими правами, а также файлы нелегального содержания!