Важное объявление!
У Нас Все раздачи мультитрекерные, при нуле пиров в релизах, можете смело вставать на закачку!
 
Автор Сообщение

HUNTER

Стаж:
4 года 7 месяцев
Сообщений:
61582

Репутация: 101

[+] [-]
Вне форума [Профиль] [ЛС]

Кто в доме хозяин / Хозяин дома / Man of the House
Страна: США
Студия: All Girl Productions
Жанр: Комедия, Семейный
Год выпуска: 1995
Продолжительность: 01:32:40
Перевод 1: Профессиональный (многоголосый закадровый) - СТС
Перевод 2: Профессиональный (многоголосый закадровый) - Видеосервис
Перевод 3: Авторский (одноголосый закадровый) - А.Гаврилов
Cубтитры: нет
Оригинальная аудиодорожка: английский
Режиссер: Джеймс Орр / James Orr
В ролях: Чеви Чейз, Фарра Фосетт, Джонатан Тейлор Томас, Джордж Уэндт, Дэвид Шайнер, Арт ЛаФлёр, Ричард Портноу, Ричард Форонджи, Питер Эппел, Джордж Грейф (Chevy Chase, Farrah Fawcett, Jonathan Taylor Thomas, George Wendt, David Shiner, Art LaFleur, Richard Portnow, Richard Foronjy, Peter Appel, George Greif)
Описание: Адвокат Джек Стерджесс женится на любимой женщине, но "в нагрузку" ему достается 11-летний сорванец, сын его избранницы. Этот "довесок" к семейному счастью решает избавиться от незваного гостя и объявляет ему войну. Но у новоиспеченного папаши есть тактика, как можно обезоружить своего маленького противника…
Доп. информация: Автор рипа - ZED. Добавлены три русские дорожки. Перевод телеканала СТС взят из раздачи smit009. Перевод концерна "Видеосервис" взят из раздачи molen. Авторский перевод А.Гаврилова взят из раздачи JIuI3epIIyJIb и немного почищен от шумов. Большое спасибо всем предоставившим материалы! На протяжении всего фильма присутствует лого телеканала.
Сэмпл
Тип релиза: HDTVRip 720p
Контейнер: MKV
Видео: 1280x720p (16:9), 25 fps, x264, 6590 kbps
Аудио 1: Russian - СТС (Dolby AC3, 2 ch) 192 Kbps / 48 000 Hz
Аудио 2: Russian - Видеосервис (Dolby AC3, 2 ch) 192 Kbps / 48 000 Hz
Аудио 3: Russian - Гаврилов (Dolby AC3, 2 ch) 192 Kbps / 48 000 Hz
Аудио 4: English (Dolby AC3, 2 ch) 192 Kbps / 48 000 Hz

MediaInfo

Уникальный идентификатор : 175972359108323049587255781295656266605 (0x84630B28004804E0801D9B77E5B3EB6D)
Полное имя : Man.of.the.House.(1995).HDTVRip.720p.x264.RUS.ENG.AC3
Формат : Matroska
Версия формата : Version 4 / Version 2
Размер файла : 4,76 Гбайт
Продолжительность : 1 ч. 32 м.
Общий поток : 7359 Кбит/сек
Название фильма : Man of the House (1995) HDTVRip 720p
Дата кодирования : UTC 2014-12-06 22:11:27
Программа кодирования : mkvmerge v7.2.0 ('On Every Street') 32bit built on Sep 13 2014 15:42:11
Библиотека кодирования : libebml v1.3.0 + libmatroska v1.4.1
DURATION : 01:32:39.936000000
NUMBER_OF_FRAMES : 173748
NUMBER_OF_BYTES : 133438464
_STATISTICS_WRITING_APP : mkvmerge v7.2.0 ('On Every Street') 32bit built on Sep 13 2014 15:42:11
_STATISTICS_WRITING_DATE_UTC : 2014-12-06 22:11:27
_STATISTICS_TAGS : BPS DURATION NUMBER_OF_FRAMES NUMBER_OF_BYTES
Видео
Идентификатор : 1
Формат : AVC
Формат/Информация : Advanced Video Codec
Профиль формата : High@L4.1
Параметр CABAC формата : Да
Параметр ReFrames формата : 9 кадров
Идентификатор кодека : V_MPEG4/ISO/AVC
Продолжительность : 1 ч. 32 м.
Битрейт : 6590 Кбит/сек
Ширина : 1280 пикселей
Высота : 720 пикселей
Соотношение сторон : 16:9
Режим частоты кадров : Постоянный
Частота кадров : 25,000 кадров/сек
Цветовое пространство : YUV
Субдискретизация насыщенности : 4:2:0
Битовая глубина : 8 бит
Тип развёртки : Прогрессивная
Бит/(Пиксели*Кадры) : 0.286
Размер потока : 4,17 Гбайт (88%)
Библиотека кодирования : x264 core 142 r2431 ac76440
Настройки программы : cabac=1 / ref=9 / deblock=1:-3:-3 / analyse=0x3:0x113 / me=umh / subme=9 / psy=1 / psy_rd=1.10:0.00 / mixed_ref=1 / me_range=32 / chroma_me=1 / trellis=2 / 8x8dct=1 / cqm=0 / deadzone=21,11 / fast_pskip=0 / chroma_qp_offset=-2 / threads=6 / lookahead_threads=1 / sliced_threads=0 / nr=0 / decimate=1 / interlaced=0 / bluray_compat=0 / constrained_intra=0 / bframes=6 / b_pyramid=2 / b_adapt=2 / b_bias=0 / direct=3 / weightb=1 / open_gop=0 / weightp=2 / keyint=250 / keyint_min=24 / scenecut=40 / intra_refresh=0 / rc_lookahead=50 / rc=2pass / mbtree=0 / bitrate=6590 / ratetol=1.0 / qcomp=0.60 / qpmin=10 / qpmax=51 / qpstep=4 / cplxblur=20.0 / qblur=0.5 / vbv_maxrate=62500 / vbv_bufsize=78125 / nal_hrd=none / filler=0 / ip_ratio=1.40 / pb_ratio=1.30 / aq=1:1.00
Язык : English
Default : Да
Forced : Нет
DURATION : 01:32:39.880000000
NUMBER_OF_FRAMES : 138997
NUMBER_OF_BYTES : 4578742703
_STATISTICS_WRITING_APP : mkvmerge v7.2.0 ('On Every Street') 32bit built on Sep 13 2014 15:42:11
_STATISTICS_WRITING_DATE_UTC : 2014-12-06 22:11:27
_STATISTICS_TAGS : BPS DURATION NUMBER_OF_FRAMES NUMBER_OF_BYTES
Аудио #1
Идентификатор : 2
Формат : AC-3
Формат/Информация : Audio Coding 3
Расширение режима : CM (complete main)
Параметр Endianness формата : Big
Идентификатор кодека : A_AC3
Продолжительность : 1 ч. 32 м.
Вид битрейта : Постоянный
Битрейт : 192 Кбит/сек
Каналы : 2 канала
Расположение каналов : Front: L R
Частота : 48,0 КГц
Битовая глубина : 16 бит
Метод сжатия : С потерями
Размер потока : 127 Мбайт (3%)
Заголовок : СТС
Язык : Russian
Default : Да
Forced : Нет
Аудио #2
Идентификатор : 3
Формат : AC-3
Формат/Информация : Audio Coding 3
Расширение режима : CM (complete main)
Параметр Endianness формата : Big
Идентификатор кодека : A_AC3
Продолжительность : 1 ч. 32 м.
Вид битрейта : Постоянный
Битрейт : 192 Кбит/сек
Каналы : 2 канала
Расположение каналов : Front: L R
Частота : 48,0 КГц
Битовая глубина : 16 бит
Метод сжатия : С потерями
Размер потока : 127 Мбайт (3%)
Заголовок : Видеосервис
Язык : Russian
Default : Нет
Forced : Нет
Аудио #3
Идентификатор : 4
Формат : AC-3
Формат/Информация : Audio Coding 3
Расширение режима : CM (complete main)
Параметр Endianness формата : Big
Идентификатор кодека : A_AC3
Продолжительность : 1 ч. 32 м.
Вид битрейта : Постоянный
Битрейт : 192 Кбит/сек
Каналы : 2 канала
Расположение каналов : Front: L R
Частота : 48,0 КГц
Битовая глубина : 16 бит
Метод сжатия : С потерями
Размер потока : 127 Мбайт (3%)
Заголовок : Гаврилов
Язык : Russian
Default : Нет
Forced : Нет
Аудио #4
Идентификатор : 5
Формат : AC-3
Формат/Информация : Audio Coding 3
Расширение режима : CM (complete main)
Параметр Endianness формата : Big
Идентификатор кодека : A_AC3
Продолжительность : 1 ч. 32 м.
Вид битрейта : Постоянный
Битрейт : 192 Кбит/сек
Каналы : 2 канала
Расположение каналов : Front: L R
Частота : 48,0 КГц
Битовая глубина : 16 бит
Метод сжатия : С потерями
Размер потока : 127 Мбайт (3%)
Заголовок : Original
Язык : English
Default : Нет
Forced : Нет

Скриншоты


_________________
Показать сообщения:    

Текущее время: Сегодня 19:18

Часовой пояс: GMT



Вы не можете начинать темы
Вы не можете отвечать на сообщения
Вы не можете редактировать свои сообщения
Вы не можете удалять свои сообщения
Вы не можете голосовать в опросах
Вы не можете прикреплять файлы к сообщениям
Вы не можете скачивать файлы
Наши партнеры: интернет магазин Ивановского трикотажа textilla.ru