Важное объявление!
У Нас Все раздачи мультитрекерные, при нуле пиров в релизах, можете смело вставать на закачку!
 
Автор Сообщение

HUNTER

Стаж:
4 года 7 месяцев
Сообщений:
61508

Репутация: 101

[+] [-]
Вне форума [Профиль] [ЛС]

Крякнутые каникулы /
Страна: Россия
Жанр: мультфильм, комедия, приключения, семейный
Продолжительность: 01:21:43
Год выпуска: 2015
Перевод : Оригинал
Русские субтитры: нет
Режиссёр: Виктор Лакисов
Роли озвучивали: Никита Пресняков, Владимир Пресняков мл., Эвелина Блёданс, Полина Максимова, Александр Головин, Всеволод Кузнецов, Борис Токарев, Станислав Стрелков, Елена Шульман, Михаил Лукашов
Описание: Перелётные кряквы из России, решившие провести свой отдых на Гавайях, сбиваются с пути и приземляются на китайский остров, на котором живут утки-мандаринки. Между двумя стаями возникает много смешных и курьёзных ситуаций. Пока отцы дерутся и спорят, Ник, сын императора мандаринок и Ариша, дочь командира русских крякв, знакомятся и становятся друзьями. Дети должны объединить мандаринок и крякв и победить Ведьму Марго, которая хочет погубить солнце.
Доп. информация: http://www.kinopoisk.ru/film/742300/
Семпл: http://sendfile.su/1219033
Качество: WEB-DLRip
Формат: AVI
Видео: 720x400 (1.80:1), 24.000 fps, XviD build 50 ~1937 kbps avg, 0.28 bit/pixel
Аудио: 48 kHz, AC3 Dolby Digital, 2/0 (L,R) ch, ~448.00 kbps avg
Субтитры: отсутствуют

Подробные технические данные

ОбщееПолное имя : J:\Kryaknytue.kanikuly.2016.O.WEBDLRip.aviФормат : AVIФормат/Информация : Audio Video InterleaveРазмер файла : 1,37 ГбайтПродолжительность : 1 ч. 21 м.Общий поток : 2395 Кбит/секПрограмма кодирования : VirtualDubMod 1.5.10.3 | www.virtualdub-fr.org || (build 2550/release)Библиотека кодирования : VirtualDubMod build 2550/release
ВидеоИдентификатор : 0Формат : MPEG-4 VisualПрофиль формата : Advanced Simple@L5Параметр BVOP формата : 2Параметр QPel формата : НетПараметр GMC формата : Без точки переходаПараметр матрицы формата : Default (MPEG)Идентификатор кодека : XVIDИдентификатор кодека/Подсказка : XviDПродолжительность : 1 ч. 21 м.Битрейт : 1937 Кбит/секШирина : 720 пикселейВысота : 400 пикселейСоотношение сторон : 16:9Частота кадров : 24,000 кадра/секЦветовое пространство : YUVСубдискретизация насыщенности : 4:2:0Битовая глубина : 8 битТип развёртки : ПрогрессивнаяМетод сжатия : С потерямиБит/(Пиксели*Кадры) : 0.280Размер потока : 1,11 Гбайт (81%)Библиотека кодирования : XviD 1.2.1 (UTC 2008-12-04)
АудиоИдентификатор : 1Формат : AC-3Формат/Информация : Audio Coding 3Расширение режима : CM (complete main)Параметр Endianness формата : BigИдентификатор кодека : 2000Продолжительность : 1 ч. 21 м.Вид битрейта : ПостоянныйБитрейт : 448 Кбит/секКаналы : 2 каналаРасположение каналов : Front: L RЧастота : 48,0 КГцЧастота кадров : 31,250 кадров/сек (1536 spf)Метод сжатия : С потерямиРазмер потока : 262 Мбайт (19%)Выравнивание : Разделение по промежуткамПродолжительность промежутка : 42 мс. (1,00 видеокадр)Время предзагрузки промежутка : 500 мс.

Скриншоты


_________________
Показать сообщения:    

Текущее время: Сегодня 02:57

Часовой пояс: GMT



Вы не можете начинать темы
Вы не можете отвечать на сообщения
Вы не можете редактировать свои сообщения
Вы не можете удалять свои сообщения
Вы не можете голосовать в опросах
Вы не можете прикреплять файлы к сообщениям
Вы не можете скачивать файлы
Наши партнеры: интернет магазин Ивановского трикотажа textilla.ru