Важное объявление!
У Нас Все раздачи мультитрекерные, при нуле пиров в релизах, можете смело вставать на закачку!
Статистика раздачи
Размер:     |    Зарегистрирован:     |    Скачан:     |   
Нет
 
     
 
 
Автор Сообщение

HUNTER

Стаж:
5 лет
Сообщений:
68033

Репутация: 101

[+] [-]
Вне форума [Профиль] [ЛС]

Крэйзи / Havoc
Страна: США, Германия
Жанр: триллер, драма, криминал
Год выпуска: 2005
Продолжительность: 01:25:30
Перевод: профессиональный (дублированный)
Cубтитры: русские
Оригинальная аудиодорожка: английский
Режиссер: Барбара Коппл / Barbara Kopple
В ролях:
Энн Хэтэуэй
Бижу Филлипс
Фредди Родригес
Шири Эпплби
Майкл Бин
Джозеф Гордон-Левитт
Мэтью О’Лири
Лора Сан Джакомо
Майк Фогель
Рэймонд Крус
Описание: Эллисон и Эмили из богатого района, тусуясь в местной «банде», однажды решают усилить ощущения в Восточном Лос-Анджелесе — районе реальных городских гангстеров!.. Они получили там все, что хотели… кроме второго шанса.
Сэмпл: https://www.sendspace.com/file/pnvytp
Тип релиза: Web-DL 720p
Контейнер: mkv
Видео: MPEG4 Video (H264) / 1280x718 / 23.976 fps / 16:9 / 4 107 Kbps
Аудио 1: Русский | AC3 5.1 / 48 kHz / 448 kbps | Дубляж
Аудио 2: Английский | AC3 5.1 / 48 kHz / 384 kbps
Формат субтитров: softsub (SRT)

MediaInfo

Общее
Уникальный идентификатор : 247692818635165684183085028372206157967 (0xBA57E6D2012656C48465EE2ADA29808F)
Полное имя : \Havoc 2005 Web-DL 720p.mkv
Формат : Matroska
Версия формата : Version 2
Размер файла : 3,01 Гбайт
Продолжительность : 1 ч. 25 м.
Общий поток : 5040 Кбит/сек
Дата кодирования : UTC 2015-11-10 18:56:39
Программа кодирования : mkvmerge v8.3.0 ('Over the Horizon') 64bit
Библиотека кодирования : libebml v1.3.1 + libmatroska v1.4.2
Видео
Идентификатор : 1
Формат : AVC
Формат/Информация : Advanced Video Codec
Профиль формата : High@L3.1
Параметр CABAC формата : Нет
Параметр ReFrames формата : 2 кадра
Идентификатор кодека : V_MPEG4/ISO/AVC
Продолжительность : 1 ч. 25 м.
Битрейт : 4107 Кбит/сек
Ширина : 1280 пикселей
Высота : 718 пикселей
Соотношение сторон : 16:9
Режим частоты кадров : Постоянный
Частота кадров : 23,976 кадра/сек
Цветовое пространство : YUV
Субдискретизация насыщенности : 4:2:0
Битовая глубина : 8 бит
Тип развёртки : Прогрессивная
Бит/(Пиксели*Кадры) : 0.186
Размер потока : 2,45 Гбайт (82%)
Default : Да
Forced : Нет
Цветовой диапазон : Limited
Основные цвета : BT.709
Характеристики трансфера : BT.709
Коэффициенты матрицы : BT.709
Аудио #1
Идентификатор : 2
Формат : AC-3
Формат/Информация : Audio Coding 3
Расширение режима : CM (complete main)
Параметр Endianness формата : Big
Идентификатор кодека : A_AC3
Продолжительность : 1 ч. 25 м.
Вид битрейта : Постоянный
Битрейт : 448 Кбит/сек
Каналы : 6 каналов
Расположение каналов : Front: L C R, Side: L R, LFE
Частота : 48,0 КГц
Метод сжатия : С потерями
Размер потока : 274 Мбайт (9%)
Язык : Russian
Default : Да
Forced : Нет
Аудио #2
Идентификатор : 3
Формат : AC-3
Формат/Информация : Audio Coding 3
Расширение режима : CM (complete main)
Параметр Endianness формата : Big
Идентификатор кодека : A_AC3
Продолжительность : 1 ч. 25 м.
Вид битрейта : Постоянный
Битрейт : 384 Кбит/сек
Каналы : 6 каналов
Расположение каналов : Front: L C R, Side: L R, LFE
Частота : 48,0 КГц
Метод сжатия : С потерями
Размер потока : 235 Мбайт (8%)
Язык : English
Default : Нет
Forced : Нет
Текст
Идентификатор : 4
Формат : UTF-8
Идентификатор кодека : S_TEXT/UTF8
Идентификатор кодека/Информация : UTF-8 Plain Text
Язык : Russian
Default : Нет
Forced : Нет

Скриншоты




_________________
Показать сообщения:    

Текущее время: Сегодня 22:43

Часовой пояс: GMT



Вы не можете начинать темы
Вы не можете отвечать на сообщения
Вы не можете редактировать свои сообщения
Вы не можете удалять свои сообщения
Вы не можете голосовать в опросах
Вы не можете прикреплять файлы к сообщениям
Вы не можете скачивать файлы