Ивановский Торрент трекер
Яндекс.Погода
Статистика раздачи
Размер:  6.47 GB   |    Зарегистрирован:  1 год 8 месяцев   |    Скачан:  0 раз

Полного источника не было: Никогда

 
     
 
 
 

[Цитировать]
HUNTER

Крыса / Ratter
Страна: США
Студия: Start Motion Pictures
Жанр: ужасы, триллер, драма
Год выпуска: 2015
Продолжительность: 01:20:20
Перевод: Профессиональный (многоголосый закадровый) iTunes
Cубтитры: Rus, Eng
Оригинальная аудиодорожка: английский
Режиссер: Брендан Крамер / Branden Kramer
В ролях: Эшли Бенсон, Мэтт МакГорри, Кайли Вернофф, Ребекка Наоми Джонс, Алекс Кранмер, Майкл Уильям Фриман, Джон Андерсон, Карл Глусман, Джереми Фиорентино, Джон Басс
Описание: За Эммой, аспиранткой живущей одной в Нью-Йорке, начинает следить маньяк, который взламывает всю её окружающую технику - ноутбук, сотовый телефон и другие веб-устройства. Эта одержимость продолжает расти, после того как хакер записывает самые интимные моменты Эммы. Когда ощущений от просмотра не достаточно, ситуация обостряется до опасного и ужасающего уровня.

Тип релиза: BDRip 1080p
Контейнер: MKV
Видео: MPEG-4 AVC, 9411 Кбит/с, 1920x1040, 23,976 fps
Аудио: Rus, AC3, 384 kb/s (6 ch), 48 kHz
Аудио 2: Eng, DTS, 1510 kb/s (6 ch), 48 kHz
Формат субтитров: softsub (SRT)

MediaInfo

x264 [info]: frame I:667 Avg QP:13.88 size:189246
x264 [info]: frame P:28370 Avg QP:15.36 size: 93194
x264 [info]: frame B:86531 Avg QP:17.41 size: 35107
Format : Matroska
Format version : Version 4 / Version 2
File size : 6.47 GiB
Duration : 1h 20mn
Overall bit rate : 11.5 Mbps
Movie name : Крыса. (Tonik)
Encoded date : UTC 2016-03-18 04:46:26
Writing application : mkvmerge v7.1.0 ('Good Love') 64bit built on Jul 27 2014 13:06:55
Writing library : libebml v1.3.0 + libmatroska v1.4.1
_STATISTICS_WRITING_APP : mkvmerge v7.1.0 ('Good Love') 64bit built on Jul 27 2014 13:06:55
_STATISTICS_WRITING_DATE_UTC : 2016-03-18 04:46:26
_STATISTICS_TAGS : BPS DURATION NUMBER_OF_FRAMES NUMBER_OF_BYTES
DURATION : 01:20:21.152000000
NUMBER_OF_FRAMES : 150661
NUMBER_OF_BYTES : 231415296
Video
ID : 1
Format : AVC
Format/Info : Advanced Video Codec
Format profile : High@L4.1
Format settings, CABAC : Yes
Format settings, ReFrames : 4 frames
Codec ID : V_MPEG4/ISO/AVC
Duration : 1h 20mn
Bit rate : 9 411 Kbps
Width : 1 920 pixels
Height : 1 040 pixels
Display aspect ratio : 1.85:1
Frame rate mode : Constant
Frame rate : 23.976 fps
Color space : YUV
Chroma subsampling : 4:2:0
Bit depth : 8 bits
Scan type : Progressive
Bits/(Pixel*Frame) : 0.197
Stream size : 5.28 GiB (82%)
Writing library : x264 core 142 r2431+42 c69a006 tMod [8-bit@all X86_64]
Encoding settings : cabac=1 / ref=4 / deblock=1:-3:-3 / analyse=0x3:0x133 / me=umh / subme=11 / psy=1 / fade_compensate=0.00 / psy_rd=0.90:0.00 / mixed_ref=1 / me_range=32 / chroma_me=1 / trellis=2 / 8x8dct=1 / cqm=0 / deadzone=21,11 / fast_pskip=0 / chroma_qp_offset=-2 / threads=60 / lookahead_threads=8 / sliced_threads=0 / nr=0 / decimate=0 / interlaced=0 / bluray_compat=0 / constrained_intra=0 / fgo=0 / bframes=8 / b_pyramid=2 / b_adapt=2 / b_bias=0 / direct=3 / weightb=1 / open_gop=0 / weightp=2 / keyint=240 / keyint_min=23 / scenecut=40 / intra_refresh=0 / rc_lookahead=60 / rc=crf / mbtree=0 / crf=17.8000 / qcomp=0.60 / qpmin=0:0:0 / qpmax=69:69:69 / qpstep=4 / vbv_maxrate=40000 / vbv_bufsize=30000 / crf_max=0.0 / nal_hrd=none / filler=0 / ip_ratio=1.40 / pb_ratio=1.30 / aq=1:0.90 / aq-sensitivity=10.00 / aq-factor=1.00:1.00:1.00 / aq2=0 / aq3=0
Language : English
Default : Yes
Forced : No
Audio #1
ID : 2
Format : AC-3
Format/Info : Audio Coding 3
Mode extension : CM (complete main)
Format settings, Endianness : Big
Codec ID : A_AC3
Duration : 1h 20mn
Bit rate mode : Constant
Bit rate : 384 Kbps
Channel(s) : 6 channels
Channel positions : Front: L C R, Side: L R, LFE
Sampling rate : 48.0 KHz
Bit depth : 16 bits
Compression mode : Lossy
Stream size : 221 MiB (3%)
Title : iTunes
Language : Russian
Default : Yes
Forced : No
Audio #2
ID : 3
Format : DTS
Format/Info : Digital Theater Systems
Mode : 16
Format settings, Endianness : Big
Codec ID : A_DTS
Duration : 1h 20mn
Bit rate mode : Constant
Bit rate : 1 509 Kbps
Channel(s) : 6 channels
Channel positions : Front: L C R, Side: L R, LFE
Sampling rate : 48.0 KHz
Bit depth : 16 bits
Compression mode : Lossy
Stream size : 867 MiB (13%)
Language : English
Default : No
Forced : No
Text #1
ID : 4
Format : UTF-8
Codec ID : S_TEXT/UTF8
Codec ID/Info : UTF-8 Plain Text
Language : Russian
Default : No
Forced : No
Text #2
ID : 5
Format : UTF-8
Codec ID : S_TEXT/UTF8
Codec ID/Info : UTF-8 Plain Text
Language : English
Default : No
Forced : No
Menu
00:00:00.000 : en:1
00:05:08.000 : en:2
00:09:47.000 : en:3
00:14:38.000 : en:4
00:17:52.000 : en:5
00:21:21.000 : en:6
00:24:41.000 : en:7
00:31:07.000 : en:8
00:35:16.000 : en:9
00:43:05.000 : en:10
00:49:37.000 : en:11
00:54:08.000 : en:12
00:58:01.000 : en:13
01:01:48.000 : en:14
01:07:19.000 : en:15
01:10:58.000 : en:16

Скриншоты

[iv-torrents.ru].t55361.torrent
Торрент: Зарегистрирован [ 2016-03-20 13:32 ] · 8611C31531CEE72C735E3153B9001B07174A16F9

Скачать .torrent

Скачать

17 KB

Статус: проверено
Скачан: 0 раз
Размер: 6.47 GB
terms.php
Похожие темы


Показать сообщения:    

Текущее время: 12-Дек 04:56

Часовой пояс: UTC ± 0


Вы не можете начинать темы
Вы не можете отвечать на сообщения
Вы не можете редактировать свои сообщения
Вы не можете удалять свои сообщения
Вы не можете голосовать в опросах
Вы не можете прикреплять файлы к сообщениям
Вы можете скачивать файлы

!ВНИМАНИЕ!
Сайт не предоставляет электронные версии произведений, а занимается лишь коллекционированием и каталогизацией ссылок, присылаемых и публикуемых на форуме нашими читателями. Если вы являетесь правообладателем какого-либо представленного материала и не желаете, чтобы ссылка на него находилась в нашем каталоге, свяжитесь с нами, и мы незамедлительно удалим ее. Файлы для обмена на трекере предоставлены пользователями сайта, и администрация не несет ответственности за их содержание. Просьба не заливать файлы, защищенные авторскими правами, а также файлы нелегального содержания!