Важное объявление!
У Нас Все раздачи мультитрекерные, при нуле пиров в релизах, можете смело вставать на закачку!
 
Автор Сообщение

HUNTER

Стаж:
4 года 8 месяцев
Сообщений:
62003

Репутация: 101

[+] [-]
Вне форума [Профиль] [ЛС]

Крымск. Cтихийное бедствие или спланированная операция
Дата/Год выпуска: 2014
Страна: Россия
Жанр: Документальный, исторический
Продолжительность: 00:53:41
Перевод: Не требуется
Оригинальная аудиодорожка: русский
Режиссер: Светлана Пеунова
Описание: По официальным данным в Крымске погибло 172 человека. Но в эти цифры до сих пор мало кто верит.
Так кто же виноват в случившемся? Можно ли было спасти людей? Сколько человек на самом деле погибло? Как предовратить подобные катастрофы в будущем? Каким еще городам угрожает смертельная опасность?
Мы провели собственное расследование, опросили свидетелей и пострадавших трагедии.
Результаты представлены в фильме "Крымск. Обратная сторона. Cтихийное бедствие или спланированная операция?"
качество: DVDRip
формат: AVI
Видео: MPEG4, 720x576 (5:4), 1750 кб/с, 24fps
Аудио: MP3, 48000Hz, 320kbps, 2 ch

MediaInfo

Complete name : G:\Обманутая Россия\Крымск. Cтихийное бедствие или спланированная операция.avFormat : AVIFormat/Info : Audio Video InterleaveFile size : 800 MiBDuration : 53mn 41sOverall bit rate : 2 082 KbpsWriting application : Lavf54.63.104
VideoID : 0Format : MPEG-4 VisualFormat profile : Simple@L1Format settings, BVOP : NoFormat settings, QPel : NoFormat settings, GMC : No warppointsFormat settings, Matrix : Default (H.263)Codec ID : FMP4Duration : 53mn 41sBit rate : 1 750 KbpsWidth : 720 pixelsHeight : 576 pixelsDisplay aspect ratio : 5:4Frame rate : 24.000 fpsStandard : PALColor space : YUVChroma subsampling : 4:2:0Bit depth : 8 bitsScan type : ProgressiveCompression mode : LossyBits/(Pixel*Frame) : 0.176Stream size : 672 MiB (84%)Writing library : Lavc54.92.100
AudioID : 1Format : MPEG AudioFormat version : Version 1Format profile : Layer 3Mode : Joint stereoMode extension : MS StereoCodec ID : 55Codec ID/Hint : MP3Duration : 53mn 41sBit rate mode : ConstantBit rate : 320 KbpsChannel(s) : 2 channelsSampling rate : 48.0 KHzCompression mode : LossyStream size : 123 MiB (15%)Alignment : Aligned on interleavesInterleave, duration : 24 ms (0.58 video frame)Writing library : LAME3.99.5

Скриншоты


_________________
Показать сообщения:    

Текущее время: Сегодня 15:01

Часовой пояс: GMT



Вы не можете начинать темы
Вы не можете отвечать на сообщения
Вы не можете редактировать свои сообщения
Вы не можете удалять свои сообщения
Вы не можете голосовать в опросах
Вы не можете прикреплять файлы к сообщениям
Вы не можете скачивать файлы
Наши партнеры: интернет магазин Ивановского трикотажа textilla.ru