Важное объявление!
У Нас Все раздачи мультитрекерные, при нуле пиров в релизах, можете смело вставать на закачку!
 
Автор Сообщение

димитри37

Стаж:
3 года 10 месяцев
Сообщений:
1237

Репутация: 127

[+] [-]
Вне форума [Профиль] [ЛС]

Крутые кексы / High School-
Страна: США
Жанр:Комедия
Год выпуска: 2010
Продолжительность:
01:39:33
Перевод: Профессиональный (дублированный)
Cубтитры: нет
Режиссер: Джон Сталберг / John Stalberg
В ролях: Эдриан Броуди, Шон Маркетт, Мэтт Буш, Колин Хэнкс, Адхир Кальян, Майкл Чиклис, Майкелти Уильямсон, Луис Чавез, Макс Ван Вилле, Бретт Келли
Описание: На следующий день после того как студент-выпускник Генри Берк впервые решается попробовать марихуану, его директор вводит жесткие правила относительно наркотиков и в связи с этим назначает обязательный тест для всех учащихся. У Генри есть два варианта: провалить этот тест и потерять стипендию, или объединиться со своим другом-укурком и найти выход из положения. В итоге они крадут марихуану у ставшего наркодилером студента юридического факультета и подмешивают ее в шоколадные пирожные, которые продают на распродаже выпечки в их университете…
Качество видео: HDRip
Формат видео: AVI
Видео:] 720x304 (2.35:1), 23.976 fps, XviD ~1 710 Kbps, 0.326 bit/pixel
Аудио: 48.0 KHz, AC-3, 2 ch, 224 Kbps

MediaInfo

General
Complete name : C:\Users\Андрей\Desktop\High.School.2010.D.HDRip.avi
Format : AVI
Format/Info : Audio Video Interleave
File size : 1.35 GiB
Duration : 1h 39mn
Overall bit rate : 1 943 Kbps
Movie name : High.School.2010.D.HDRip.NNM-CLUB
Director : Liones / СПАМ
Writing application : VirtualDubMod 1.5.10.3 | www.virtualdub-fr.org || (build 2550/release)
Copyright : СПАМ
Comment : Release for СПАМ
Video
ID : 0
Format : MPEG-4 Visual
Format profile : Advanced Simple@L5
Format settings, BVOP : 2
Format settings, QPel : No
Format settings, GMC : No warppoints
Format settings, Matrix : Default (MPEG)
Codec ID : XVID
Codec ID/Hint : XviD
Duration : 1h 39mn
Bit rate : 1 710 Kbps
Width : 720 pixels
Height : 304 pixels
Display aspect ratio : 2.35:1
Frame rate : 23.976 fps
Color space : YUV
Chroma subsampling : 4:2:0
Bit depth : 8 bits
Scan type : Progressive
Compression mode : Lossy
Bits/(Pixel*Frame) : 0.326
Stream size : 1.19 GiB (88%)
Writing library : XviD 1.2.1 (UTC 2008-12-04)
Audio
ID : 1
Format : AC-3
Format/Info : Audio Coding 3
Mode extension : CM (complete main)
Format settings, Endianness : Big
Codec ID : 2000
Duration : 1h 39mn
Bit rate mode : Constant
Bit rate : 224 Kbps
Channel(s) : 2 channels
Channel positions : Front: L R
Sampling rate : 48.0 KHz
Bit depth : 16 bits
Compression mode : Lossy
Delay relative to video : 13ms
Stream size : 159 MiB (12%)
Alignment : Split accross interleaves
Interleave, duration : 42 ms (1.00 video frame)
Interleave, preload duration : 500 ms

Скриншоты

-
Показать сообщения:    

Текущее время: Сегодня 01:49

Часовой пояс: GMT



Вы не можете начинать темы
Вы не можете отвечать на сообщения
Вы не можете редактировать свои сообщения
Вы не можете удалять свои сообщения
Вы не можете голосовать в опросах
Вы не можете прикреплять файлы к сообщениям
Вы не можете скачивать файлы
Наши партнеры: интернет магазин Ивановского трикотажа textilla.ru