Крутой учитель Онизука / GTO: Great Teacher Onizuka (Абэ Нориюки) [TV] [43 из 43] [Без хардсаба] [RUS(ext),UKR, JAP, SUB] [1999 г., школа, драма, комедия, DVDRip] :: Ивановский Торрент трекер
Важное объявление!
У Нас Все раздачи мультитрекерные, при нуле пиров в релизах, можете смело вставать на закачку!
 
Автор Сообщение

Savaris

Стаж:
6 лет 4 месяца
Сообщений:
156

Репутация: 40

[+] [-]
Вне форума [Профиль] [ЛС]

Крутой учитель Онизука / GTO: Great Teacher Onizuka-
Страна: Япония
Год выпуска: 1999 г.
Жанр: школа, драма, комедия
Тип: TV
Продолжительность: 43 эп. по ~23 мин.
Режиссер: Абэ Нориюки
Студия: Studio Pierrot-Описание: Онидзука Эйкити ("22 года, холост", - как он сам любит представляться) - настоящий ужас на двух колесах, член нагоняющей ужас на горожан банды мотоциклистов, решает переквалифицироваться в… школьного учителя. Ведь в любом учебном заведении полным-полно аппетитных старшеклассниц в коротеньких юбочках! Но чем глубже примеривший необычную роль хулиган окунается в перипетии общего образования, тем сильнее он пытается переиначить место работы на свой манер - одерживая одну за другой победы над царящими в школе косностью, лицемерием, показухой и безразличием.-Качество: DVDRip [Yurasyk]
Формат видео: MKV
Видео: x264 (AVC High10@L4.0), 10bits, 960x720, ~4500 Kbps, 23.976 fps
Аудио: Jap, AC3 , 48000Hz, 384 Kbps, 6ch
Аудио 2(Ext): Rus, AC3 , 48000Hz, 384 Kbps, 6ch - Профессиональный (многоголосый) - MC Entertainment
Аудио 3(Ext): Rus, AC3 , 48000Hz, 192 Kbps, 2ch - Любительский (однолосный) - Е. Лурье (Сузаку)
Аудио 4(Ext): Ukr, AC3 , 48000Hz, 384 Kbps, 6ch - Профессиональный (многоголосый) - "Стармастер" по заказу QTV
Субтитры: Rus, Srt, перевод: Nickliverpool-

Подробные тех. данные

GeneralUnique ID : 199398472729553241337105928256538402049 (0x9602BFBB276A08CE9796209986E9DD01)Complete name : J:\Anime\GTO\GTO - 01 [DVDRip 960x720 x264 AC3].mkvFormat : MatroskaFile size : 1.63 GiBDuration : 48mn 24sOverall bit rate : 4 816 KbpsEncoded date : UTC 2011-10-08 20:59:02Writing application : mkvmerge v4.9.1 ('Ich will') built on Jul 11 2011 23:53:15Writing library : libebml v1.2.1 + libmatroska v1.1.1
VideoID : 1Format : AVCFormat/Info : Advanced Video CodecFormat profile : High 10@L4.0Format settings, CABAC : YesFormat settings, ReFrames : 9 framesCodec ID : V_MPEG4/ISO/AVCDuration : 48mn 24sBit rate : 4 336 KbpsWidth : 960 pixelsHeight : 720 pixelsDisplay aspect ratio : 4:3Frame rate : 23.976 fpsColor space : YUVChroma subsampling : 4:2:0Bit depth : 10 bitsScan type : ProgressiveBits/(Pixel*Frame) : 0.262Stream size : 1.47 GiB (90%)Writing library : x264 core 116 r2044 392e762Encoding settings : cabac=1 / ref=9 / deblock=1:1:1 / analyse=0x3:0x113 / me=umh / subme=10 / psy=1 / psy_rd=1.20:0.10 / mixed_ref=1 / me_range=32 / chroma_me=1 / trellis=2 / 8x8dct=1 / cqm=0 / deadzone=21,15 /fast_pskip=0 / chroma_qp_offset=-3 / threads=12 / sliced_threads=0 / nr=0 / decimate=1 / interlaced=0 / bluray_compat=0 / constrained_intra=0 / bframes=16 / b_pyramid=2 / b_adapt=2 / b_bias=0 / direct=3 / weightb=1 /open_gop=0 / weightp=2 / keyint=240 / keyint_min=24 / scenecut=40 / intra_refresh=0 / rc=crf / mbtree=0 / crf=17.0 / qcomp=0.65 / qpmin=0 / qpmax=81 / qpstep=4 / ip_ratio=1.40 / pb_ratio=1.30 / aq=2:0.80Language : Japanese
AudioID : 2Format : AC-3Format/Info : Audio Coding 3Mode extension : CM (complete main)Codec ID : A_AC3Duration : 48mn 24sBit rate mode : ConstantBit rate : 384 KbpsChannel(s) : 6 channelsChannel positions : Front: L C R, Side: L R, LFESampling rate : 48.0 KHzBit depth : 16 bitsCompression mode : LossyStream size : 133 MiB (8%)Language : Japanese
Menu00:00:00.000 : :Intro00:03:06.486 : :Opening00:04:43.650 : :Part A00:14:05.178 : :Eyecatch 100:14:07.013 : :Part B00:22:05.858 : :Eyecatch 200:22:07.793 : :Part C00:29:17.155 : :Eyecatch 300:29:18.991 : :Part D00:35:23.555 : :Eyecatch 400:35:25.390 : :Part E00:39:49.020 : :Eyecatch 500:39:50.889 : :Part F00:46:22.880 : :Ending00:48:05.850 : :Preview

Список эпизодов

Episode 1: The Legend Begins
Episode 2: Enter Uchiyamada
Episode 3: Late Night Roof Diving
Episode 4: The Secret Life of Onizuka
Episode 5: An Eye for an Eye, a Butt for a Butt
Episode 6: Conspiracies All Around
Episode 7: The Mother of All Crushes
Episode 8: Bungee Jumping Made Easy
Episode 9: Onizuka and the Art of War
Episode 10: Outside Looking in
Episode 11: To Be Idolized by a Nation
Episode 12: The Formula for Treachery
Episode 13: Only the Best Will Do
Episode 14: Between the a Rock and a Hard Place
Episode 15: The Great Sacrifice
Episode 16: Beauty + Brains = A Dangerous Mix
Episode 17: Falling for the Great Onizuka
Episode 18: How to Dine and Dash
Episode 19: Private Investigations
Episode 20: Love Letters
Episode 21: Revolution Everywhere
Episode 22: The Art of Demolition
Episode 23: Superstition
Episode 24: Compromising Positions
Episode 25: Playing Doctor: GTO Style
Episode 26: Onizuka Meets His Match
Episode 27: GTO: Agent to the Stars
Episode 28: Whatever Can Go Wrong, Will Go Wrong
Episode 29: Studies in High Finance
Episode 30: Money Talks, GTO Walks
Episode 31: Destination: Okinawa
Episode 32: The Law of Probability
Episode 33: Search and Rescue
Episode 34: Good Cop/Bad Cop
Episode 35: Wedding Bell Blues
Episode 36: Self Improvement: Fuyutsuki's Transformation
Episode 37: Living Together
Episode 38: Great Treasure Onizuka
Episode 39: Alone in the Dark
Episode 40: Matters of the Heart
Episode 41: Confessions
Episode 42: Old Wounds Revisited
Episode 43: Onizuka's Final Battle

Скриншоты

Доп. инфо: Как смотреть 10-битное видео (10-bit)-Источник:

_________________

Показать сообщения:    

Текущее время: Сегодня 10:24

Часовой пояс: GMT



Вы не можете начинать темы
Вы не можете отвечать на сообщения
Вы не можете редактировать свои сообщения
Вы не можете удалять свои сообщения
Вы не можете голосовать в опросах
Вы не можете прикреплять файлы к сообщениям
Вы не можете скачивать файлы