Важное объявление!
У Нас Все раздачи мультитрекерные, при нуле пиров в релизах, можете смело вставать на закачку!
 
Автор Сообщение

HUNTER

Стаж:
4 года 10 месяцев
Сообщений:
65506

Репутация: 101

[+] [-]
Вне форума [Профиль] [ЛС]


Круг женской силы – энергии стихий и тайны обольщения-Год выпуска: 2007
Страна: Россия
Сайт производителя: отсутствуeт
Тематика: Медитация, психология
Тип материала: Обучающее видео
Продолжительность: 00:41:08
Автор: Лариса Ренар
Язык: Русский
Субтитры: отсутствуют-Описание: Тренинг по искусству управлять своей женской внутренней силой. Легко и непринужденно Лариса Ренар введет вас в мир, где стихии и потоки энергий играют не меньшую роль, чем курс валют, а отношения не просто складываются, а искусно строятся согласно законам психологии, и легенды приобретают реальный жизненный смысл. Женские энергетические практики первый раз представлены в такой увлекательной форме и впечатляюще эффективной системе. Афродита возвращает свою силу в мир XXI века и практика Ларисы Ренар "Круг женской силы. Энергии стихий и тайны обольщения" - самое убедительное тому доказательство.-Качество: DVDRip
Формат: AVI
Видео кодек: XviD
Аудио кодек: AC3
Видео: 640x480 (1.33:1), 25 fps, XviD build 47 ~1101 kbps avg, 0.14 bit/pixel
Аудио: 48 kHz, AC3 Dolby Digital, 2/0 (L,R) ch, ~192.00 kbps avg-

Доп. информация

Лариса Ренар готова поделиться своими секретами. Выглядящая не старше тридцати, сексуальная и лучезарная. В свои сорок – кандидат психологических наук, биолог по первому образованию и психолог по второму, получившая степень МВА в Стокгольмской школе экономики, читающая лекции на международных конгрессах по всему миру по психологии стресса. Будучи замужем уже восемнадцатый год, всё ещё влюблена в собственного мужа. А их двое сыновей влюблены в свою суматошную маму. Каждое утро, выезжая из своего загородного дома, вот уже пять лет она спешит к своим ученицам в Академию Частной Жизни, тем, кто хотел бы совершить невозможное и научиться, как, сохранив мужа, не потерять себя, как остаться желанной долгие годы и при этом уделять внимание детям и друзьям.

MediaInfo

Код: copyText_writeLink('this.parentNode.parentNode.nextSibling.nextSibling'); Общее
Полное имя : D:\обуч\Ренар Лариса - Круг женской силы.avi
Формат : AVI
Формат/Информация : Audio Video Interleave
Размер файла : 383 Мбайт
Продолжительность : 41 м.
Общий поток : 1303 Кбит/сек
Программа кодирования : VirtualDubMod 1.5.10.2 (build 2540/release)
Библиотека кодирования : VirtualDubMod build 2540/release
Видео
Идентификатор : 0
Формат : MPEG-4 Visual
Профиль формата : Advanced Simple@L5
Параметр BVOP формата : 1
Параметр QPel формата : Да
Параметр GMC формата : 3 точки перехода
Параметр матрицы формата : Default (H.263)
Идентификатор кодека : XVID
Идентификатор кодека/Подсказка : XviD
Продолжительность : 41 м.
Битрейт : 1101 Кбит/сек
Ширина : 640 пикселей
Высота : 480 пикселей
Соотношение сторон : 4:3
Частота кадров : 25,000 кадров/сек
Цветовое пространство : YUV
Субдискретизация насыщенности : 4:2:0
Битовая глубина : 8 бит
Тип развёртки : Прогрессивная
Метод сжатия : С потерями
Бит/(Пиксели*Кадры) : 0.143
Размер потока : 324 Мбайт (85%)
Библиотека кодирования : XviD 1.2.0.dev47 (UTC 2006-11-01)
Аудио
Идентификатор : 1
Формат : AC-3
Формат/Информация : Audio Coding 3
Расширение режима : CM (complete main)
Параметр Endianness формата : Big
Идентификатор кодека : 2000
Продолжительность : 41 м.
Вид битрейта : Постоянный
Битрейт : 192 Кбит/сек
Каналы : 2 канала
Расположение каналов : Front: L R
Частота : 48,0 КГц
Битовая глубина : 16 бит
Метод сжатия : С потерями
Размер потока : 56,5 Мбайт (15%)
Выравнивание : Разделение по промежуткам
Продолжительность промежутка : 40 мс. (1,00 видеокадр)
Время предзагрузки промежутка : 500 мс.

Скриншоты

-

_________________
Показать сообщения:    

Текущее время: Сегодня 22:12

Часовой пояс: GMT



Вы не можете начинать темы
Вы не можете отвечать на сообщения
Вы не можете редактировать свои сообщения
Вы не можете удалять свои сообщения
Вы не можете голосовать в опросах
Вы не можете прикреплять файлы к сообщениям
Вы не можете скачивать файлы