Важное объявление!
У Нас Все раздачи мультитрекерные, при нуле пиров в релизах, можете смело вставать на закачку!
Статистика раздачи
Размер:     |    Зарегистрирован:     |    Скачан:     |   
Нет
 
     
 
 
Автор Сообщение

HUNTER

Стаж:
5 лет
Сообщений:
67968

Репутация: 101

[+] [-]
Вне форума [Профиль] [ЛС]

Кругосветное путешествие Твити / Tweety's High-Flying Adventure
Страна: США
Жанр: мультфильм, комедия, семейный
Продолжительность: 01:11:53
Год выпуска: 2000
Перевод: Авторский (одноголосый закадровый) Андрей Дольский
Cубтитры: отсутствуют-Слоган «You're in for a TWEMENDOUS ride as TWEETY takes off in his VERY FIRST MOVIE!»-Режиссёр: Карл Тордж / Karl Toerge, Чарльз Виссер / Charles Visser, Джеймс Т. Уокер / James T. Walker
Роли озвучивали: Джо Аляски, Джефф Беннетт, Джули Бернштейн, Стивен Бернштейн, Джим Каммингс, Джун Форэй, Стэн Фреберг, Ти’Кейя Кристел Кеймэ, Тресс МакНилл-Описание:
Полнометражный анимационный фильм с маленькой желтой птичкой в главной роли. Когда полковник Римфайр из Клуба Чокнутых заявил о том, что кошки - самые умные животные, Бабуля, в надежде собрать достаточное количество денег на спасение детского парка, заключает пари о том, что ее птичка Твити сможет облететь вокруг света за 80 дней, собрав при этом отпечатки 80-ти кошачьих лап. Сильвестр все еще жаждет полакомится Твити и испытывает яростное негодование от одной мысли о том, что другой кот сможет съесть птичку раньше него. По этой причине он клянется следовать за Твити по всему миру и самостоятельно поймать желанную канарейку.
-
Качество: DVDRip
Формат: AVI
Видео: 704x528 (1.33:1), 29.970 fps, XviD build 73 ~2287 kbps avg, 0.21 bit/pixel
Аудио №1: Русский: 48 kHz, AC3 Dolby Digital, 2/0 (L,R) ch, ~192.00 kbps avg [Авторский (одноголосый закадровый)]
Аудио №2: Английский: 48 kHz, AC3 Dolby Digital, 3/2 (L,C,R,l,r) ch, ~448.00 kbps avg [Оригинал]
Исходник DVD: http://rutracker.org/forum/viewtopic.php?t=4284004
Автор рипа: domin8

Подробные технические данные

GeneralComplete name : C:\Tweety's High-Flying Adventure\01\Tweety's_High-Flying_Adventure_DVDRip.aviFormat : AVIFormat/Info : Audio Video InterleaveFile size : 1.48 GiBDuration : 1h 11mnOverall bit rate : 2 945 KbpsMovie name : Tweety's High-Flying Adventure [ripped by domin8]Genre : Child'sWriting application : VirtualDubMod 1.5.10.3 | www.virtualdub-fr.org || (build 2550/release)Original source form/Name : CartoonVideo #0ID : 0Format : MPEG-4 VisualFormat profile : Advanced Simple@L5Format settings, BVOP : YesFormat settings, QPel : NoFormat settings, GMC : No warppointsFormat settings, Matrix : CustomCodec ID : XVIDCodec ID/Hint : XviDDuration : 1h 11mnBit rate : 2 288 KbpsWidth : 704 pixelsHeight : 528 pixelsDisplay aspect ratio : 4:3Frame rate : 29.970 fpsColor space : YUVChroma subsampling : 4:2:0Bit depth : 8 bitsScan type : ProgressiveBits/(Pixel*Frame) : 0.205Stream size : 1.15 GiB (78%)Writing library : XviD 73Audio #1ID : 1Format : AC-3Format/Info : Audio Coding 3Mode extension : CM (complete main)Codec ID : 2000Duration : 1h 11mnBit rate mode : ConstantBit rate : 192 KbpsChannel(s) : 2 channelsChannel positions : Front: L RSampling rate : 48.0 KHzBit depth : 16 bitsStream size : 98.7 MiB (7%)Alignment : Split accross interleavesInterleave, duration : 33 ms (1.00 video frame)Interleave, preload duration : 500 msTitle : RussianAudio #2ID : 2Format : AC-3Format/Info : Audio Coding 3Mode extension : CM (complete main)Codec ID : 2000Duration : 1h 11mnBit rate mode : ConstantBit rate : 448 KbpsChannel(s) : 5 channelsChannel positions : Front: L C R, Side: L RSampling rate : 48.0 KHzBit depth : 16 bitsStream size : 230 MiB (15%)Alignment : Split accross interleavesInterleave, duration : 33 ms (1.00 video frame)Interleave, preload duration : 500 msTitle : English

Скриншоты


_________________
Показать сообщения:    

Текущее время: Сегодня 16:45

Часовой пояс: GMT



Вы не можете начинать темы
Вы не можете отвечать на сообщения
Вы не можете редактировать свои сообщения
Вы не можете удалять свои сообщения
Вы не можете голосовать в опросах
Вы не можете прикреплять файлы к сообщениям
Вы не можете скачивать файлы