Важное объявление!
У Нас Все раздачи мультитрекерные, при нуле пиров в релизах, можете смело вставать на закачку!
Статистика раздачи
Размер:     |    Зарегистрирован:     |    Скачан:     |   
Нет
 
     
 
 
Автор Сообщение

HUNTER

Стаж:
5 лет
Сообщений:
67898

Репутация: 101

[+] [-]
Вне форума [Профиль] [ЛС]

Круглый год!
Страна: Россия
Жанр: Мультфильм
Продолжительность: 00:38:45
Год выпуска: 2008
Перевод: Не требуется
Русские субтитры: нет
Режиссёр: Вероника Федорова
Роли озвучивали: Юрий Коваль, Даниил Спиваковский, Сергей Щипачёв-Описание: «Круглый год» — 12 серий-месяцев! Один из главных персонажей цикла — удивительный кот, который в зависимости от времени года становится Летним, Осенним, Зимним, Весенним… В путешествие по месяцам вместе с котами отправляются Снегири, Курица и цыплятами, Лошадка Тучка, Агафон, Ванечка Пряников и Орехьевна. В основе сценария сериала рассказы знаменитого детского писателя Юрия Коваля, причем несколько серий озвучены голосом самого автора. И, конечно, приключения веселей с музыкой. За саундтрек отвечали самые ответственные композиторы: Моцарт, Гайдн, Вивальди...-Доп. материалы: Биография Юрия Коваля
Доп. информация: из книжки Юрия Коваля "Круглый Год, рассказы" (Исправленная версия)
Качество: DVD5
Формат: DVD-video
Видео: MPEG-2 Video, 720x576 (4:3), ~6000 kbps, 25 fps
Аудио: AC3, 2 ch, 48 kHz, 224 kbps
Субтитры: отсутствуют
Благодарность zritel за исходный DVD
Релиз:

Список эпизодов

01. Январь - Снегири и коты
02. Февраль - Снежный всадник
03. Март - Весенний кот
04. Апрель – Певцы
05. Май – Лошадка
06. Июнь – Орехьевна
07. Июль - Летний кот
08. Август – Везуха
09. Сентябрь - Осеннее котяро
10. Октябрь – Листобой
11. Ноябрь – Орион
12. Декабрь - Снеги-белы

MediaInfo

ОбщееПолное имя : E:\MULTFILMS\Круглый год 2008\VIDEO_TS\VTS_03_1.VOBФормат : MPEG-PSРазмер файла : 1024 МбайтПродолжительность : 22 м.Режим общего битрейта : ПеременныйОбщий поток : 6349 Кбит/сек
ВидеоИдентификатор : 224 (0xE0)Формат : MPEG VideoВерсия формата : Version 2Профиль формата : Main@MainПараметр BVOP формата : ДаПараметр матрицы формата : По умолчаниюПараметр GOP формата : M=3, N=12Продолжительность : 22 м.Вид битрейта : ПеременныйБитрейт : 5998 Кбит/секМаксимальный битрейт : 7500 Кбит/секШирина : 720 пикселейВысота : 576 пикселейСоотношение сторон : 4:3Частота кадров : 25,000 кадров/секСтандарт вещания : PALЦветовое пространство : YUVСубдискретизация насыщенности : 4:2:0Битовая глубина : 8 битТип развёртки : ПрогрессивнаяМетод сжатия : С потерямиБит/(Пиксели*Кадры) : 0.579Временной код первого кадра : 00:00:00:00Оригинал временного кода : Group of pictures headerРазмер потока : 967 Мбайт (94%)
АудиоИдентификатор : 189 (0xBD)-128 (0x80)Формат : AC-3Формат/Информация : Audio Coding 3Расширение режима : CM (complete main)Параметр Endianness формата : BigРежим смешивания : DVD-VideoПродолжительность : 22 м.Вид битрейта : ПостоянныйБитрейт : 224 Кбит/секКаналы : 2 каналаРасположение каналов : Front: L RЧастота : 48,0 КГцБитовая глубина : 16 битМетод сжатия : С потерямиРазмер потока : 36,1 Мбайт (4%)

DVDInfo

Title: Круглый год 2008Size: 1.87 Gb ( 1 964 222,00 KBytes ) - DVD-5Enabled regions: 1, 2, 3, 4, 5, 6, 7, 8
VTS_01 : Play Length: 00:00:15 Video: PAL 4:3 (720x576) VBR Audio: Not specified (Dolby AC3, 2 ch)
VTS_02 : Play Length: 00:00:08 Video: PAL 4:3 (720x576) VBR Audio: Not specified (Dolby AC3, 2 ch)
VTS_03 : Play Length: 00:38:45 Video: PAL 4:3 (720x576) VBR Audio: Russian (Dolby AC3, 2 ch)
VTS_04 : Play Length: 00:01:51 Video: PAL 4:3 (720x576) VBR Audio: Not specified (Dolby AC3, 2 ch)
VTS_05 : Play Length: 00:00:20 Video: PAL 16:9 (720x576) VBR, Auto Letterboxed Audio: Not specified (Dolby AC3, 2 ch)
* Menus Information *
VIDEO_TS MenuVideo: NTSC 4:3 (720x480) VBR Auto Pan&Scan, Auto LetterboxedEnglish Language Unit : Title Menu
VTS_01 MenuVideo: PAL 4:3 (720x576) VBRAudio: Not specified (Dolby AC3, 2 ch)English Language Unit : Root Menu Chapter (PTT) Menu
VTS_02 MenuVideo: NTSC 4:3 (720x480) VBR Auto Pan&Scan, Auto LetterboxedEnglish Language Unit : Root Menu Chapter (PTT) Menu
VTS_03 MenuVideo: NTSC 4:3 (720x480) VBR Auto Pan&Scan, Auto LetterboxedEnglish Language Unit : Root Menu Chapter (PTT) Menu
VTS_04 MenuVideo: NTSC 4:3 (720x480) VBR Auto Pan&Scan, Auto LetterboxedEnglish Language Unit : Root Menu Chapter (PTT) Menu
VTS_05 MenuVideo: NTSC 4:3 (720x480) VBR Auto Pan&Scan, Auto LetterboxedEnglish Language Unit : Root Menu Chapter (PTT) Menu

Скриншоты меню

Скриншоты



_________________
Показать сообщения:    

Текущее время: Сегодня 18:45

Часовой пояс: GMT



Вы не можете начинать темы
Вы не можете отвечать на сообщения
Вы не можете редактировать свои сообщения
Вы не можете удалять свои сообщения
Вы не можете голосовать в опросах
Вы не можете прикреплять файлы к сообщениям
Вы не можете скачивать файлы