Важное объявление!
У Нас Все раздачи мультитрекерные, при нуле пиров в релизах, можете смело вставать на закачку!
Статистика раздачи
Размер:     |    Зарегистрирован:     |    Скачан:     |   
Нет
 
     
 
 
Автор Сообщение

HUNTER

Стаж:
5 лет 1 месяц
Сообщений:
68439

Репутация: 101

[+] [-]
Вне форума [Профиль] [ЛС]

-
Год выпуска: 2013
Страна: Япония
Жанр: комедия, этти
Продолжительность: ТВ-сериал, 24 эп. по 24 мин.
Выпуск: c 04.10.2013-Перевод:
  • русские субтитры от Timecraft & Ambiente (полные/вспомогательные)
    редактор: AleX_MytH, переводчик: BO3DYX
-Режиссер: Имайси Хироюки
Студия: Trigger-Описание:
Огромная Академия Истины похожа на гибрид шикарного дворца и детской колонии. Ею и прилегающим городом правит семья Кирюин, владеющая секретом «боевых волокон». Будучи добавлены в обычную школьную форму (такую называют однозвездной), волокна делают обладателя сильнее и быстрее, превращая в серьезного бойца. Однозвездную форму носят рядовые дружинники, более мощную двухзвездную – лидеры спортивных клубов, а трехзвездную, годную для супермена – четверо элитных членов Совета, которые напрямую подчиняются «богине» школы Сацуки Кирюин. Впрочем, богине тоже можно бросить вызов!
Именно это сделала 17-летняя яркая и решительная Рюко Матой, ищущая убийцу своего отца. Единственными ключами к разгадке тайны являются красный клинок в виде половинки ножниц (вторая половина осталась у киллера) и живой чудо-костюм, достойный бога, целиком сотканный из боевых волокон. Связь с семьей Кирюин очевидна, но гордая Сацуки не намерена говорить с простолюдинкой, пока та не докажет, что достойна ее внимания. Впрочем, за Рюко не заржавеет! Для этой раскованной девчонки нет ни авторитетов, ни слова «невозможно», а по пафосным речам она даже с Сейлор Мун свободно потягается!
© Hollow, World Art-Информационные ссылки: AniDB || World Art || MAL-Качество: BDRip
Энкод: Winter - RG Pantheon
Тип видео: без хардсаба, без линковки
Формат: mkv
Видео: x264 (Hi10p), 1280x720, ~5500 Kbps, 23.976 fps
Аудио JAP: Vorbis, 48000Hz, ~256 Kbps, 2ch
Аудио RUS 1-3: AC3, 48000Hz, ~192 Kbps, 2ch (внешними файлами)
Аудио RUS 4-6: AC3, 48000Hz, ~192 Kbps, 2ch (внешними файлами)
Аудио RUS 7-9: AC3, 48000Hz, ~192 Kbps, 2ch (внешними файлами)-

Список озвучек в раздаче

  • одноголосая (жен.) от Persona99 (Get Smart)
  • одноголосая (муж.) от Rise (RG Genshiken)
  • двухголосая (муж./жен.) от Carrier88 & Orwald
  • двухголосая (муж./жен.) от NASTR & VashMax2 (ARRU)
  • двухголосая (муж./жен.) от Scrap & Kogarasi (Timecraft)
  • двухголосая (муж./жен.) от TrinaD & Cuba77 (AniDub)
  • двухголосая (муж./жен.) от Zendos & Eladiel (Anilibria)
  • трехголосая от Mukuro & Mosa & Lali (Anifilm)
  • многоголосая от Gezell

Список эпизодов

01. If Only I Had Thorns Like a Thistle...
02. So Sexy She Might Pass Out

Скриншоты


Подробные тех. данные

Общее
Уникальный идентификатор : 214484830213308948320381139748254697868 (0xA15C46951789088A9831AA38CA00C98C)
Полное имя : Z:\Anime\720p\Kill la Kill [BD] [720p]\[Winter] Kill la Kill 02 [BDrip 1280x720 x264 Vorbis].mkv
Формат : Matroska
Версия формата : Version 2
Размер файла : 1020 Мбайт
Продолжительность : 24 м.
Режим общего битрейта : Переменный
Общий поток : 5796 Кбит/сек
Дата кодирования : UTC 2014-02-22 12:00:28
Программа кодирования : mkvmerge v2.9.8 ('C'est le bon') built on Aug 13 2009 12:49:06
Библиотека кодирования : libebml v0.7.7 + libmatroska v0.8.1
Видео
Идентификатор : 1
Формат : AVC
Формат/Информация : Advanced Video Codec
Профиль формата : High 10@L4.1
Параметр CABAC формата : Да
Параметр ReFrames формата : 9 кадров
Идентификатор кодека : V_MPEG4/ISO/AVC
Продолжительность : 24 м.
Битрейт : 5425 Кбит/сек
Ширина : 1280 пикселей
Высота : 720 пикселей
Соотношение сторон : 16:9
Режим частоты кадров : Постоянный
Частота кадров : 23,976 кадра/сек
Цветовое пространство : YUV
Субдискретизация насыщенности : 4:2:0
Битовая глубина : 10 бит
Тип развёртки : Прогрессивная
Бит/(Пиксели*Кадры) : 0.246
Размер потока : 955 Мбайт (94%)
Библиотека кодирования : x264 core 132 r2309 3b1f1f7
Настройки программы : cabac=1 / ref=9 / deblock=1:-2:-2 / analyse=0x3:0x133 / me=umh / subme=9 / psy=1 / psy_rd=0.90:0.00 / mixed_ref=1 / me_range=24 / chroma_me=1 / trellis=2 / 8x8dct=1 / cqm=0 / deadzone=21,11 / fast_pskip=1 / chroma_qp_offset=-2 / threads=12 / lookahead_threads=2 / sliced_threads=0 / nr=0 / decimate=0 / interlaced=0 / bluray_compat=0 / constrained_intra=0 / bframes=8 / b_pyramid=2 / b_adapt=2 / b_bias=0 / direct=1 / weightb=1 / open_gop=0 / weightp=2 / keyint=250 / keyint_min=23 / scenecut=40 / intra_refresh=0 / rc=crf / mbtree=0 / crf=18.0 / qcomp=0.70 / qpmin=9 / qpmax=42 / qpstep=4 / ip_ratio=1.40 / pb_ratio=1.30 / aq=1:0.90
Default : Нет
Forced : Нет
Аудио
Идентификатор : 2
Формат : Vorbis
Параметр Floor формата : 1
Идентификатор кодека : A_VORBIS
Продолжительность : 24 м.
Вид битрейта : Переменный
Битрейт : 256 Кбит/сек
Каналы : 2 канала
Частота : 48,0 КГц
Метод сжатия : С потерями
Размер потока : 45,1 Мбайт (4%)
Библиотека кодирования : libVorbis (Schaufenugget) (20101101 (Schaufenugget))
Язык : Japanese
Default : Да
Forced : Нет
- -

Информация о релизе

  • Выбор видео, перевода, озвучки, а также типа сборки материала осуществляется релизером и не подлежит обсуждению. Если вы считаете, что раздаваемый материал противоречит правилам раздела "Аниме" rutracker.org, сообщите об этом одному из модераторов раздела.
  • В случае появления нового материала или же лучшего по качеству материала релизер оставляет за собой право обновить раздачу. В этом случае вам необходимо ознакомиться с изменениями (добавлениями) и перекачать торрент.
  • Данный релиз предназначен для просмотра на ПК. Воспроизведение на иных проигрывателях не гарантируется. Для просмотра рекомендуется Media Player Classic с установленным пакетом кодеков K-Lite.
  • Данный релиз содержит 10-битное видео (Hi10p). Для корректного воспроизведения обязательно используйте кодеки, поддерживающие 10-битное видео.
    Обсудить частные случаи проблем с воспроизведением и получить дополнительную информацию можно здесь.

  • Данный релиз предназначен для просмотра с внешними субтитрами и внешними звуковыми дорожками.
    • Для просмотра с внешней звуковой дорожкой нужно:
      перекинуть файлы .mka из папки "RUS Sound [<автор(ы) озвучки>]" в одну папку с видео и переключить звуковую дорожку в плеере при просмотре. Как это сделать в разных плеерах подробно описано здесь.

    • Для просмотра с субтитрами нужно:
      перекинуть файлы .ass из папки "RUS Subtitles [<автор(ы) перевода>]" в одну папку с видео - плеер подгрузит их автоматически при открытии видео.
  • Если у вас возникли проблемы с просмотром, не связанные с описанным выше, сообщите о них автору раздачи посредством сообщения в теме или ЛС Aglenn.

_________________
Показать сообщения:    

Текущее время: Сегодня 10:01

Часовой пояс: GMT



Вы не можете начинать темы
Вы не можете отвечать на сообщения
Вы не можете редактировать свои сообщения
Вы не можете удалять свои сообщения
Вы не можете голосовать в опросах
Вы не можете прикреплять файлы к сообщениям
Вы не можете скачивать файлы