Важное объявление!
У Нас Все раздачи мультитрекерные, при нуле пиров в релизах, можете смело вставать на закачку!
 
Автор Сообщение

HUNTER

Стаж:
4 года 7 месяцев
Сообщений:
61428

Репутация: 101

[+] [-]
Вне форума [Профиль] [ЛС]

-
Год выпуска: 2014
Страна: Япония
Жанр: комедия, повседневность
Продолжительность: ТВ-сериал, 12 эп. по 24 мин.
Выпуск: c 10.04.2014 по 26.06.2014-Перевод:

  • русские субтитры от LeoDreaM & Усатый Ня (полные/вспомогательные)-Режиссер: Хасимото Хироюки
    Студия: White Fox-Описание:
    В далекой Европе стоит чудный средневековый городок, где на узких вымощенных улочках красуются фахверковые дома, над речкой перекинуты ажурные мостики, а жизнь течет спокойно и неторопливо, как в старые добрые времена. Именно в это райское местечко приезжает учиться 15-летняя Кокоа Хото, сгусток энергии из страны Восходящего солнца. Рыжая не из тех, кто грустит на чужбине – да и чего грустить: тут «на четверть бывший наш народ». Ну а когда Кокоа узнала, что жить и работать в кафе «Кроличья нора» придется вместе с кавайной малышкой Тино, таскающей на голове говорящего кролика Типпи, то поняла, что приехала не зря!
    Вот так и потекли трудовые будни очередной гостьи Страны Чудес, где живут Белые Кролики, несмотря на европейский антураж все почему-то говорят по-японски, вокруг школы цветет сакура, а учебный год начинается в апреле! Да что школа, в городе куда интереснее, а когда наскучит в «Норе», всегда можно побродить по магазинам, откушать родные сласти-вагаси у землячки Тии Удзимацу или попробовать травяные чаи у новой подруги Сяро Киримы. Говорят, что «жизнь француза проходит в кафе», а чем хуже героини сериала? В общем, мадмуазель… охиме… девушка, мне три чашечки кофе и шоколадного зайца!
    © Hollow, World Art
    Сериал принадлежит к поджанру «кафейного моэ», поэтому имена главных и многих других героинь выведены из популярных напитков. Кокоа Хото – это cocoa hot, «горячее какао», Кафу Тино – капучино, Тэдэдза Ризэ – от The des Alizes, французского сорта ароматизированного зеленого чая. При этом интересно, что все эти явные фонетические имитации записаны не каной, а иероглифами.-Информационные ссылки: AniDB || World Art || MAL-Качество: BDRip
    Энкод: Winter - RG Pantheon
    Тип видео: без хардсаба, без линковки
    Формат: mkv
    Видео: x264 (Hi10p), 1280x720, ~2400 Kbps, 23.976 fps
    Аудио JAP: Vorbis, 48000Hz, ~256 Kbps, 2ch-

    Список эпизодов
    01. I Knew at First Glance That It Was No Ordinary Fluffball
    02. The Girl Who Loved Wheat and the Girl Loved by Azuki Beans
    СкриншотыОтличия от других раздачПодробные тех. данные
    Общее
    Уникальный идентификатор : 195807219960915800923541372602763384030 (0x934F194C9847C2869B24226EFB6314DE)
    Полное имя : Z:\Anime\720p\Gochuumon wa Usagi Desuka [BD] [720p]\[Winter] Gochuumon wa Usagi Desuka 01 [BDrip 1280x720 x264 Vorbis].mkv
    Формат : Matroska
    Версия формата : Version 2
    Размер файла : 448 Мбайт
    Продолжительность : 23 м.
    Режим общего битрейта : Переменный
    Общий поток : 2641 Кбит/сек
    Дата кодирования : UTC 2014-06-24 17:22:08
    Программа кодирования : mkvmerge v2.9.8 ('C'est le bon') built on Aug 13 2009 12:49:06
    Библиотека кодирования : libebml v0.7.7 + libmatroska v0.8.1
    Видео
    Идентификатор : 1
    Формат : AVC
    Формат/Информация : Advanced Video Codec
    Профиль формата : High 10@L4.1
    Параметр CABAC формата : Да
    Параметр ReFrames формата : 9 кадров
    Идентификатор кодека : V_MPEG4/ISO/AVC
    Продолжительность : 23 м.
    Битрейт : 2332 Кбит/сек
    Ширина : 1280 пикселей
    Высота : 720 пикселей
    Соотношение сторон : 16:9
    Режим частоты кадров : Постоянный
    Частота кадров : 23,976 кадра/сек
    Цветовое пространство : YUV
    Субдискретизация насыщенности : 4:2:0
    Битовая глубина : 10 бит
    Тип развёртки : Прогрессивная
    Бит/(Пиксели*Кадры) : 0.106
    Размер потока : 395 Мбайт (88%)
    Библиотека кодирования : x264 core 132 r2309 3b1f1f7
    Настройки программы : cabac=1 / ref=9 / deblock=1:-2:-2 / analyse=0x3:0x133 / me=umh / subme=9 / psy=1 / psy_rd=0.90:0.00 / mixed_ref=1 / me_range=24 / chroma_me=1 / trellis=2 / 8x8dct=1 / cqm=0 / deadzone=21,11 / fast_pskip=1 / chroma_qp_offset=-2 / threads=12 / lookahead_threads=2 / sliced_threads=0 / nr=0 / decimate=0 / interlaced=0 / bluray_compat=0 / constrained_intra=0 / bframes=8 / b_pyramid=2 / b_adapt=2 / b_bias=0 / direct=1 / weightb=1 / open_gop=0 / weightp=2 / keyint=250 / keyint_min=23 / scenecut=40 / intra_refresh=0 / rc=crf / mbtree=0 / crf=15.7 / qcomp=0.70 / qpmin=9 / qpmax=40 / qpstep=4 / ip_ratio=1.40 / pb_ratio=1.30 / aq=1:0.90
    Default : Нет
    Forced : Нет
    Аудио
    Идентификатор : 2
    Формат : Vorbis
    Параметр Floor формата : 1
    Идентификатор кодека : A_VORBIS
    Продолжительность : 23 м.
    Вид битрейта : Переменный
    Битрейт : 256 Кбит/сек
    Каналы : 2 канала
    Частота : 48,0 КГц
    Метод сжатия : С потерями
    Размер потока : 43,4 Мбайт (10%)
    Библиотека кодирования : libVorbis (Schaufenugget) (20101101 (Schaufenugget))
    Язык : Japanese
    Default : Да
    Forced : Нет

    -
    Информация о релизе
  • Выбор видео, перевода, озвучки, а также типа сборки материала осуществляется релизером и не подлежит обсуждению. Если вы считаете, что раздаваемый материал противоречит правилам раздела "Аниме" rutracker.org, сообщите об этом одному из модераторов раздела.
  • В случае появления нового материала или же лучшего по качеству материала релизер оставляет за собой право обновить раздачу. В этом случае вам необходимо ознакомиться с изменениями (добавлениями) и перекачать торрент.
  • Данный релиз предназначен для просмотра на ПК. Воспроизведение на иных проигрывателях не гарантируется. Для просмотра рекомендуется Media Player Classic с установленным пакетом кодеков K-Lite.
  • Данный релиз содержит 10-битное видео (Hi10p). Для корректного воспроизведения обязательно используйте кодеки, поддерживающие 10-битное видео.
    Обсудить частные случаи проблем с воспроизведением и получить дополнительную информацию можно здесь.

  • Данный релиз предназначен для просмотра с внешними субтитрами и внешними звуковыми дорожками.
  • Для просмотра с внешней звуковой дорожкой нужно:
    перекинуть файлы .mka из папки "RUS Sound [<автор(ы) озвучки>]" в одну папку с видео и переключить звуковую дорожку в плеере при просмотре. Как это сделать в разных плеерах подробно описано здесь.

  • Для просмотра с субтитрами нужно:
    перекинуть файлы .ass из папки "RUS Subtitles [<автор(ы) перевода>]" в одну папку с видео - плеер подгрузит их автоматически при открытии видео.

  • Если у вас возникли проблемы с просмотром, не связанные с описанным выше, сообщите о них автору раздачи посредством сообщения в теме или ЛС Aglenn.

  • _________________
    Показать сообщения:    

    Текущее время: Сегодня 14:11

    Часовой пояс: GMT



    Вы не можете начинать темы
    Вы не можете отвечать на сообщения
    Вы не можете редактировать свои сообщения
    Вы не можете удалять свои сообщения
    Вы не можете голосовать в опросах
    Вы не можете прикреплять файлы к сообщениям
    Вы не можете скачивать файлы
    Наши партнеры: интернет магазин Ивановского трикотажа textilla.ru