Важное объявление!
У Нас Все раздачи мультитрекерные, при нуле пиров в релизах, можете смело вставать на закачку!
Статистика раздачи
Размер:     |    Зарегистрирован:     |    Скачан:     |   
Нет
 
     
 
 
Автор Сообщение

HUNTER

Стаж:
5 лет
Сообщений:
68004

Репутация: 101

[+] [-]
Вне форума [Профиль] [ЛС]

-
Год выпуска: 2013
Страна: США
Жанр: боевик, триллер, драма, криминал
Продолжительность: 01:25:10-Перевод: Профессиональный (многоголосый, закадровый)
Режиссер: Джорджо Серафини / Giorgio Serafini, Шон Сургос / Shawn Sourgose
В ролях: Дольф Лундгрен (Axel), Винни Джонс (Campbell), Билли Зейн (Quinn), Джанни Капальди (Kurt), Роберт Дави (Hayden), Роберт Миано (Serge), Масси Фурлан (Boris), ЛаДон Драммонд (Agent West), Стефани Рэй Андерсон (Escort #1), Мэнни Айала (Bum Hitman), Аль Бурк (Officer Bauer), Золи Дора (Campbell Henchman #2)-Описание: Куинн Форте имел всё: власть, богатство, брата, боготворивший его, и женщину, которая очень любила его. Преданный кем-то из друзей, в одну ночь он теряет всё. Его отец - глава криминального клана убит, а брат считает, что это вина именно Куинна, который оказывается за решеткой. После освобождения из тюрьмы, герой объединяется со своим бывшим ставленником и близким другом и наносит врагам ответный удар.--Качество: BDRip-AVC
Контейнер: MKV
Видео кодек: AVC
Аудио кодек: AC3
Видео: AVC, 1024x576 (16:9), 2100 kbps, 23,976 fps, 0,148 bpp
Аудио: / AC3 / 5.1 / 48 kHz / 448 kbps / 16 bit-
Рип: and77200
Группа: -

Рейтинг

4.10 (523) 4.968 (146)

Скриншоты

Media Info

General
Unique ID : 205569579792951486915991512514321405228 (0x9AA742CCD26A1C6892DF4E2C6BA7552C)
Complete name : G:\Фильмы\Кровь искупления.2013.BDRip-AVC.mkv
Format : Matroska
Format version : Version 4 / Version 2
File size : 1.52 GiB
Duration : 1h 25mn
Overall bit rate : 2 550 Kbps
Encoded date : UTC 2013-12-01 17:52:32
Writing application : mkvmerge v6.4.1 ('Omega Point') built on Sep 16 2013 22:05:10
Writing library : libebml v1.3.0 + libmatroska v1.4.1
Video
ID : 1
Format : AVC
Format/Info : Advanced Video Codec
Format profile : [url=mailto:High@L4.1]High@L4.1[/url]
Format settings, CABAC : Yes
Format settings, ReFrames : 10 frames
Codec ID : V_MPEG4/ISO/AVC
Duration : 1h 25mn
Bit rate : 2 100 Kbps
Width : 1 024 pixels
Height : 576 pixels
Display aspect ratio : 16:9
Frame rate mode : Constant
Frame rate : 23.976 fps
Color space : YUV
Chroma subsampling : 4:2:0
Bit depth : 8 bits
Scan type : Progressive
Bits/(Pixel*Frame) : 0.148
Stream size : 1.22 GiB (80%)
Writing library : x264 core 124 r2197M 69a0443
Encoding settings : cabac=1 / ref=11 / deblock=1:0:0 / analyse=0x3:0x133 / me=umh / subme=9 / psy=1 / psy_rd=1.00:0.20 / mixed_ref=1 / me_range=11 / chroma_me=1 / trellis=0 / 8x8dct=1 / cqm=0 / deadzone=21,11 / fast_pskip=1 / chroma_qp_offset=-2 / threads=2 / sliced_threads=0 / nr=0 / decimate=1 / interlaced=0 / bluray_compat=0 / constrained_intra=0 / bframes=11 / b_pyramid=1 / b_adapt=0 / b_bias=0 / direct=3 / weightb=1 / open_gop=0 / weightp=0 / keyint=230 / keyint_min=23 / scenecut=40 / intra_refresh=0 / rc_lookahead=40 / rc=2pass / mbtree=1 / bitrate=2100 / ratetol=1.0 / qcomp=0.60 / qpmin=10 / qpmax=51 / qpstep=4 / cplxblur=20.0 / qblur=0.5 / ip_ratio=1.40 / aq=1:1.00
Language : English
Default : Yes
Forced : No
Audio
ID : 2
Format : AC-3
Format/Info : Audio Coding 3
Mode extension : CM (complete main)
Format settings, Endianness : Big
Codec ID : A_AC3
Duration : 1h 25mn
Bit rate mode : Constant
Bit rate : 448 Kbps
Channel count : 6 channels
Channel positions : Front: L C R, Side: L R, LFE
Sampling rate : 48.0 KHz
Bit depth : 16 bits
Compression mode : Lossy
Stream size : 273 MiB (18%)
Language : Russian
Default : Yes
Forced : No
Menu
00:00:00.000 : en:
00:04:46.000 : en:
00:07:44.000 : en:
00:11:18.000 : en:
00:17:34.000 : en:
00:24:36.000 : en:
00:29:50.000 : en:
00:33:27.000 : en:
00:40:18.000 : en:
00:43:04.000 : en:
00:47:23.000 : en:
00:50:10.000 : en:
00:55:15.000 : en:
00:58:09.000 : en:
01:01:17.000 : en:
01:06:13.000 : en:
01:11:13.000 : en:
01:16:21.000 : en:
Оформление by and77200

_________________
Показать сообщения:    

Текущее время: Сегодня 06:42

Часовой пояс: GMT



Вы не можете начинать темы
Вы не можете отвечать на сообщения
Вы не можете редактировать свои сообщения
Вы не можете удалять свои сообщения
Вы не можете голосовать в опросах
Вы не можете прикреплять файлы к сообщениям
Вы не можете скачивать файлы