Важное объявление!
У Нас Все раздачи мультитрекерные, при нуле пиров в релизах, можете смело вставать на закачку!
Статистика раздачи
Размер:     |    Зарегистрирован:     |    Скачан:     |   
Нет
 
     
 
 
Автор Сообщение

HUNTER

Стаж:
5 лет
Сообщений:
67992

Репутация: 101

[+] [-]
Вне форума [Профиль] [ЛС]

Кровью и потом: Анаболики
Pain & Gain
-«Мечтай по-крупному»-Страна: США
Год выпуска: 2013
Жанр: криминал, комедия, триллер, боевик
Продолжительность: 02:09:29--Перевод: Профессиональный (дублированный)
Cубтитры: Русские, Английские
Оригинальная аудиодорожка: Английская--Режиссер:
Майкл Бэй / Michael Bay
В ролях:
Марк Уолберг (Daniel Lugo), Дуэйн Джонсон (Paul Doyle), Энтони Маки (Adrian Doorbal), Тони Шэлуб (Victor Kershaw), Эд Харрис (Ed DuBois), Роб Кордри (John Mese), Ребел Уилсон (Robin Peck), Бар Пали (Sorina Luminita), Кен Жонг (Johnny Wu), Майкл Рисполи (Frank Griga)--Описание:Однажды тренеру по фитнесу надоело ходить в трениках. Он решил круто изменить свою судьбу и разбогатеть. Нашел двух других незадачливых качков и предложил им план похищения своего клиента-миллионера. Но если в организме мышц больше, чем мозгов, то даже самый лучший план, подсмотренный в экшен-боевике, может не сработать…-- --Доп. информация: Исходиник BDRemux. Спасибо AlexD555 за инструкцию! Так же спасибо товарищам samsonq и ZVNV.--Меню: Английское, статтичное, немое
Сэмпл: http://multi-up.com/902730-Тип релиза: DVD9
Контейнер: DVD-Video
Видео: NTSC 16:9 (720x480) VBR, Auto Letterboxed
Аудио 1: Russian (Dolby AC3, 5.1 ch, 448 кб/с) - дублированный
Аудио 2: Russian (DTS, 768 кб/с) - дублированный
Аудио 3: English (Dolby AC3, 5.1 ch, 448 кб/с) - оригиналРелиз от:

Точка перехода

MediaInfo

General
Complete name : D:\Фильмы\Krovyu.i.potom.2013.DVD9\VIDEO_TS\VTS_02_1.VOB
Format : MPEG-PS
File size : 1 024 MiB
Duration : 17mn 17s
Overall bit rate : 8 280 Kbps
Video
ID : 224 (0xE0)
Format : MPEG Video
Format version : Version 2
Format profile : Main@Main
Format settings, BVOP : Yes
Format settings, Matrix : Custom
Duration : 17mn 17s
Bit rate mode : Variable
Bit rate : 6 465 Kbps
Maximum bit rate : 8 072 Kbps
Width : 720 pixels
Height : 480 pixels
Display aspect ratio : 16:9
Frame rate : 23.976 fps
Standard : NTSC
Color space : YUV
Chroma subsampling : 4:2:0
Bit depth : 8 bits
Scan type : Progressive
Scan order : 2:3 Pulldown
Compression mode : Lossy
Bits/(Pixel*Frame) : 0.780
Stream size : 799 MiB (78%)
Audio #1
ID : 189 (0xBD)-128 (0x80)
Format : AC-3
Format/Info : Audio Coding 3
Mode extension : CM (complete main)
Muxing mode : DVD-Video
Duration : 17mn 17s
Bit rate mode : Constant
Bit rate : 448 Kbps
Channel(s) : 6 channels
Channel positions : Front: L C R, Side: L R, LFE
Sampling rate : 48.0 KHz
Bit depth : 16 bits
Compression mode : Lossy
Stream size : 55.4 MiB (5%)
Audio #2
ID : 189 (0xBD)-130 (0x82)
Format : AC-3
Format/Info : Audio Coding 3
Mode extension : CM (complete main)
Muxing mode : DVD-Video
Duration : 17mn 17s
Bit rate mode : Constant
Bit rate : 448 Kbps
Channel(s) : 6 channels
Channel positions : Front: L C R, Side: L R, LFE
Sampling rate : 48.0 KHz
Bit depth : 16 bits
Compression mode : Lossy
Stream size : 55.4 MiB (5%)
Audio #3
ID : 189 (0xBD)-137 (0x89)
Format : DTS
Format/Info : Digital Theater Systems
Muxing mode : DVD-Video
Duration : 17mn 17s
Bit rate mode : Constant
Bit rate : 755 Kbps
Channel(s) : 6 channels
Channel positions : Front: L C R, Side: L R, LFE
Sampling rate : 48.0 KHz
Bit depth : 24 bits
Compression mode : Lossy
Stream size : 93.3 MiB (9%)
Text
ID : 189 (0xBD)-33 (0x21)
Format : RLE
Format/Info : Run-length encoding
Muxing mode : DVD-Video
Menu

DVDInfo

Title: Krovyu.i.potom.2013.DVD9
Size: 7.72 Gb ( 8 091 032,00 KBytes ) - DVD-9
Enabled regions: 1, 2, 3, 4, 5, 6, 7, 8
VTS_01 :
Play Length: 00:00:00
Video: NTSC 16:9 (720x480) VBR, Auto Letterboxed
VTS_02 :
Play Length: 02:09:29
Video: NTSC 16:9 (720x480) VBR, Auto Letterboxed
Audio:
Russian, AC3, 3/2 (L,C,R,SL,SR)+LFE ch, 448 kbps, Delay 0 mSec
Russian, DTS, 3/2 (L,C,R,SL,SR), 768 kbps, Delay 0 mSec
English, AC3, 3/2 (L,C,R,SL,SR)+LFE ch, 448 kbps, Delay 0 mSec
Subtitles:
Russian
English

Программы, используемые при создании релиза

Видео
ProCoder 3 - конвертация видео
AviSynth - обработка видео
DGDecodeNV - индексирование
Програмы для разборки ремукса/DVD
tsMuxeR - разборка ремукса
Работа со звуком
TranzcodeGUI, BeSweet - извлечение WAV
Sonic Foundry Soft Encode - конвертация из формата WAV в AC3
Работа с меню и реавторинг
DVD-lab PRO 2 - реавторинг диска
Adobe Photoshop - редактирование меню

-
-

Скриншоты меню

Скриншоты


_________________
Показать сообщения:    

Текущее время: Сегодня 16:53

Часовой пояс: GMT



Вы не можете начинать темы
Вы не можете отвечать на сообщения
Вы не можете редактировать свои сообщения
Вы не можете удалять свои сообщения
Вы не можете голосовать в опросах
Вы не можете прикреплять файлы к сообщениям
Вы не можете скачивать файлы