Важное объявление!
У Нас Все раздачи мультитрекерные, при нуле пиров в релизах, можете смело вставать на закачку!
Статистика раздачи
Размер:     |    Зарегистрирован:     |    Скачан:     |   
Нет
 
     
 
 
Автор Сообщение

HUNTER

Стаж:
5 лет 1 месяц
Сообщений:
68449

Репутация: 101

[+] [-]
Вне форума [Профиль] [ЛС]

Кровавый парень
Blood Lad
-
Страна: Япония
Год выпуска: 2013 г.
Жанр: приключения, комедия, фэнтези
Тип: TV
Продолжительность: 10 эп. по 25 мин-Перевод:
  • русские субтитры от LeDi-MaHo Team (полные/вспомогательные)
    Перевод и текст песен: MantisFL, редактор: Holydarkness, оформление: rusutikku
-Режиссер: Мия Сигэюки
Студия: Brains Base-Описание:
В Демоническом мире все, как у нас: в центре высится Акрополь, город аристократии, окраины поделены местными бандами. Стаз Блад, несмотря на молодость – авторитет Восточного Удела, высший вампир, по слухам, изгнанный «с горы» за излишнюю жестокость. На улицах он редко бывает вовсе не из-за солнцебоязни – подручные и так умеют улаживать дела без кровавой бани, к которой наверняка приведет вмешательство босса. В общем, подданные спокойны, бойцы довольны, и никто не подозревает, что на деле Блад - жуткий маньяк… аниме, манги и японской культуры!
Если демоны часто ходят в мир людей, то обычному человеку подобное недоступно. И что делать Стазу, когда ему в логово вдруг доставили заблудившуюся школьницу по имени Фуюми Янаги? Для истинного отаку такой подарок ценнее, чем все его фигурки, диски и танкобоны, потому наш антигерой решил не спеша разобраться с новой игрушкой. Тут и начались трудности, но ведь проблемы-то созданы, чтобы их решать, и не беда, если по дороге придется привлечь заклятых врагов, нелюбимых родичей, скользких наемниц и самого Франкенштейна! В мире демонов хороших ребят нет, а уж плохие как-нибудь договорятся! © Hollow, World Art-Информационные ссылки: AniDB || World Art || Official Site-Качество: BDRip
Тип релиза: без хардсаба
Формат видео: mp4
Видео: x264, High 4:4:4 Predictive@L5.0 (10 bit), 1920x1080, ~3125 kbit/s avg, 23.976 fps
Аудио JAP: ALAC, 48000Hz, ~712 kbit/s, 2 ch

Список эпизодов

01. She`s a Skeleton Now
02. Back Home, But Not Really
03. You Had It All Along
04. To Demon World Acropolis
05. Unidentified Demon Object
06. That`s Friendship
07. Liz, for the First Time
08. Two Is a Treasure
09. Sins of the Eye Glasses
10. The Dark Hero Rises
Special (OVA). Blood Lad EX: I'm not a cat

Скриншоты

Подробные тех. данные

MediaInfo

General
Complete name : I:\Torrents\Anime\Blood Lad [BDRip] [Hi444p]\Blood Lad 01 [TV] [BD 1920x1080 x264@Hi444p ALAC].mp4
Format : MPEG-4
Format profile : Base Media
Codec ID : isom
File size : 716 MiB
Duration : 24mn 35s
Overall bit rate mode : Variable
Overall bit rate : 4 071 Kbps
Encoded date : UTC 2014-03-30 14:56:32
Tagged date : UTC 2014-03-30 14:56:32
Video
ID : 1
Format : AVC
Format/Info : Advanced Video Codec
Format profile : High 4:4:4 Predictive@L5.0
Format settings, CABAC : Yes
Format settings, ReFrames : 4 frames
Codec ID : avc1
Codec ID/Info : Advanced Video Coding
Duration : 24mn 35s
Bit rate mode : Variable
Bit rate : 3 357 Kbps
Maximum bit rate : 60.0 Mbps
Width : 1 920 pixels
Height : 1 080 pixels
Display aspect ratio : 16:9
Frame rate mode : Constant
Frame rate : 23.976 fps
Color space : YUV
Chroma subsampling : 4:4:4
Bit depth : 10 bits
Scan type : Progressive
Bits/(Pixel*Frame) : 0.068
Stream size : 590 MiB (82%)
Encoded date : UTC 2014-02-11 11:42:27
Tagged date : UTC 2014-03-30 14:58:07
Color primaries : BT.709
Transfer characteristics : BT.709
Matrix coefficients : BT.709
Audio
ID : 2
Format : ALAC
Codec ID : alac
Codec ID/Info : Apple Lossless Audio Codec
Duration : 24mn 35s
Bit rate mode : Variable
Bit rate : 711 Kbps
Channel count : 2 channels
Sampling rate : 48.0 KHz
Bit depth : 16 bits
Stream size : 125 MiB (17%)
Encoded date : UTC 2014-02-11 11:42:27
Tagged date : UTC 2014-03-30 14:58:07

avdump

File: I:\Torrents\Anime\Blood Lad [BDRip] [Hi444p]\Blood Lad 01 [TV] [BD 1920x1080 x264@Hi444p ALAC].mp4
Duration: 00:24:35 (1475.07)
Track #1: video
lang: Unknown (1)
codc: avc1 -> H264/AVC (22)
reso: 1920x1080 -> 16:9
fram: 23.976 fps
rate: 3357 kbps (3356.96)
dura: 00:24:35 (1475.02)
size: 0.00 B (0)
Track #2: audio
lang: Unknown (1)
codc: alac -> Codec not recognized. (255)
chan: 2 -> Stereo
samp: 48000 Hz
rate: 711 kbps (710.92)
dura: 00:24:35 (1475.07)
size: 0.00 B (0)
Sizes: (check sanity)
disk: 715.78 MB (750554833)
trac: 0.00 B (0) [based on track size]
bitr: 715.28 MB (750023348) [based on bitrate]
tdif: 715.78 MB (750554833) 100.00%
bdif: 519.03 KB (531484) 0.07%

-

Информация о раздаче

  • Релиз предназначен для просмотра на ПК. Воспроизведение на иных проигрывателях не гарантируется. Для просмотра рекомендуется Media Player Classic с установленным пакетом кодеков K-Lite.
  • Видео имеет 10-битную кодировку Hi444p. Для корректного воспроизведения обязательно используйте кодеки, поддерживающие 10-битное видео.
    Обсудить частные случаи проблем с воспроизведением и получить дополнительную информацию можно здесь.
    -
  • Для просмотра с внешней звуковой дорожкой нужно:
    перекинуть файлы .mka из папки "RUS Sound [<автор(ы) озвучки>]" в одну папку с видео и переключить звуковую дорожку в плеере при просмотре. Как это сделать в разных плеерах подробно описано здесь.

  • Для просмотра с субтитрами нужно:
    перекинуть файлы .ass из папки "RUS Sub [<автор(ы) перевода>]" в одну папку с видео - плеер подгрузит их автоматически при открытии видео.

_________________
Показать сообщения:    

Текущее время: Сегодня 00:36

Часовой пояс: GMT



Вы не можете начинать темы
Вы не можете отвечать на сообщения
Вы не можете редактировать свои сообщения
Вы не можете удалять свои сообщения
Вы не можете голосовать в опросах
Вы не можете прикреплять файлы к сообщениям
Вы не можете скачивать файлы