Важное объявление!
У Нас Все раздачи мультитрекерные, при нуле пиров в релизах, можете смело вставать на закачку!
 
Автор Сообщение

HUNTER

Стаж:
4 года 7 месяцев
Сообщений:
61500

Репутация: 101

[+] [-]
Вне форума [Профиль] [ЛС]

Кровавый парень OVA / Blood Lad OVA-
Страна: Япония
Год выпуска: 2013
Жанр: приключения, комедия, фэнтези
Тип: OVA
Продолжительность: (1 эп.), 25 мин.
Режиссер: Мия Сигэюки
Студия: Brains Base-Субтитры: MantisFL, Shiori, Holydarkness, Rusutikku
Озвучка:
- двухголосная (муж./жен.) от DemonOFmooN, MezIdA [AniFilm]
Работа со звуком: Solomon [AniFilm]
Релиз: -
Описание:
Бонус к эксклюзивному ограниченному изданию десятого тома манги.
-Качество: BDRip | Формат: .mkv | Рип: OWA
Видео: x264 (10 bit), 1280x720, 2046 kbps, 23.976 fps
Звук (Rus(int)): Vorbis, 217 kbps, 48 000 Hz, 2 ch | [2VO]
Звук (Japanese): Vorbis, 261 kbps, 48 000 Hz, 2 ch | [Original]
Субтитры (Russian): ass, встроенные | только надписи (по умолчанию)
Субтитры (Russian): ass, встроенные | полный перевод
Хардсаб: Отсутствует
Cкриншоты
-
Отличия от других раздач
http://rutracker.org/forum/viewtopic.php?t=4621350 - Альтернативная озвучка

-
Отчет MediaInfo
General
Unique ID : 185324372868739134712119843971512836850 (0x8B6C2D08A6E95713AF6A22C87F5EA2F2)
Complete name : D:\[AniFilm] Blood Lad [OVA] [BDRip 720p Vorbis] [DemonOFmooN & MezIdA].mkv
Format : Matroska
Format version : Version 4 / Version 2
File size : 504 MiB
Duration : 27mn 51s
Overall bit rate mode : Variable
Overall bit rate : 2 531 Kbps
Movie name : Я не кот!
Encoded date : UTC 2014-05-04 16:46:23
Writing application : mkvmerge v6.9.1 ('Blue Panther') 64bit built on Apr 18 2014 18:23:38
Writing library : libebml v1.3.0 + libmatroska v1.4.1
TRACKSET : . #1 #1 jpn Оригинальная озвучка и полные субтитры
Attachment : Yes / Yes / Yes / Yes / Yes / Yes
Video
ID : 1
Format : AVC
Format/Info : Advanced Video Codec
Format profile : High 10@L4.1
Format settings, CABAC : Yes
Format settings, ReFrames : 8 frames
Codec ID : V_MPEG4/ISO/AVC
Duration : 27mn 51s
Bit rate : 1 991 Kbps
Width : 1 280 pixels
Height : 720 pixels
Display aspect ratio : 16:9
Frame rate mode : Constant
Frame rate : 23.976 fps
Color space : YUV
Chroma subsampling : 4:2:0
Bit depth : 10 bits
Scan type : Progressive
Bits/(Pixel*Frame) : 0.090
Stream size : 397 MiB (79%)
Writing library : x264 OWA Raws
Encoding settings : 12-12-2013 / Откодировано / OWA / http://vk.com/O_W_A
Language : Japanese
Default : Yes
Forced : No
Color primaries : BT.709
Transfer characteristics : BT.709
Matrix coefficients : BT.709
Audio #1
ID : 2
Format : Vorbis
Format settings, Floor : 1
Codec ID : A_VORBIS
Duration : 27mn 51s
Bit rate mode : Variable
Bit rate : 234 Kbps
Channel(s) : 2 channels
Sampling rate : 48.0 KHz
Compression mode : Lossy
Stream size : 46.6 MiB (9%)
Title : DemonOFmooN, MezIdA | AniFilm
Writing library : libVorbis (Everywhere) (20100325 (Everywhere))
Language : Russian
Default : Yes
Forced : Yes
Writing application : REAPER
Audio #2
ID : 3
Format : Vorbis
Format settings, Floor : 1
Codec ID : A_VORBIS
Duration : 27mn 51s
Bit rate mode : Variable
Bit rate : 256 Kbps
Channel(s) : 2 channels
Sampling rate : 48.0 KHz
Compression mode : Lossy
Stream size : 51.0 MiB (10%)
Title : Original
Writing library : Lancer 20110424 (UTC 2011-04-24)
Language : Japanese
Default : No
Forced : No
Text #1
ID : 4
Format : ASS
Codec ID : S_TEXT/ASS
Codec ID/Info : Advanced Sub Station Alpha
Compression mode : Lossless
Title : только надписи | LeDi-MaHo Team
Language : Russian
Default : Yes
Forced : Yes
Text #2
ID : 5
Format : ASS
Codec ID : S_TEXT/ASS
Codec ID/Info : Advanced Sub Station Alpha
Compression mode : Lossless
Title : полный перевод | LeDi-MaHo Team
Language : Russian
Default : No
Forced : No

_________________
Показать сообщения:    

Текущее время: Сегодня 12:24

Часовой пояс: GMT



Вы не можете начинать темы
Вы не можете отвечать на сообщения
Вы не можете редактировать свои сообщения
Вы не можете удалять свои сообщения
Вы не можете голосовать в опросах
Вы не можете прикреплять файлы к сообщениям
Вы не можете скачивать файлы
Наши партнеры: интернет магазин Ивановского трикотажа textilla.ru