Критическое решение / Семипроцентный раствор / The Seven-Per-Cent Solution (Херберт Росс / Herbert Ross) [1976, Великобритания, США, Детектив, Приключения, Драма, Комедия, BDRip 1080p] MVO + DVO + Original Eng + Sub Eng :: Ивановский Торрент трекер
Важное объявление!
У Нас Все раздачи мультитрекерные, при нуле пиров в релизах, можете смело вставать на закачку!
Статистика раздачи
Размер:     |    Зарегистрирован:     |    Скачан:     |   
Нет
 
     
 
 
Автор Сообщение

HUNTER

Стаж:
4 года 11 месяцев
Сообщений:
66054

Репутация: 101

[+] [-]
Вне форума [Профиль] [ЛС]

Критическое решение / Семипроцентный раствор / The Seven-Per-Cent Solution
Страна: Великобритания, США
Студия: Herbert Ross Productions, Universal Pictures
Жанр: Детектив, Приключения, Драма, Комедия
Год выпуска: 1976
Продолжительность: 01:53:31
Перевод 1: Профессиональный (многоголосый закадровый) - R5
Перевод 2: Профессиональный (двухголосый закадровый)
Cубтитры: английские
Оригинальная аудиодорожка: английский
Режиссер: Херберт Росс / Herbert Ross
В ролях: Алан Аркин, Ванесса Редгрейв, Роберт Дювалл, Никол Уильямсон, Лоуренс Оливье, Джоэл Грей, Саманта Эггар, Джереми Кемп, Режин, Чарльз Грей (Alan Arkin, Vanessa Redgrave, Robert Duvall, Nicol Williamson, Laurence Olivier, Joel Grey, Samantha Eggar, Jeremy Kemp, Rеgine, Charles Gray)
Описание: У Шерлока Холмса - серьезные проблемы! Доктор Ватсон, обеспокоенный здоровьем величайшего сыщика всех времен, узнает ужасную правду: его близкий друг - законченный наркоман, одержимый манией преследования. Единственный врач, который, может спасти Холмса, проживает в Вене, и это никто иной как сам Зигмунд Фрейд. Благодаря хитроумному плану, Ватсону удается вывезти ничего не подозревающего Холмса в Австрию, где доктор Фрейд приступает к принудительному лечению! Пройдя через ужасные ломки, сыщик побеждает свое пагубное пристрастие и начинает распутывать новое преступление!
Экранизация одноименного романа Николаса Мейера (у нас этот роман известен также под названием "Вам вреден кокаин, мистер Холмс"). Мейер сам написал сценарий к фильму и контролировал процесс съемок. В фильме сыграл одну из своих последних ролей великий английский актер Лоуренс Оливье. Картина была номинирована на "Оскар" в 2-х категориях: работа художника по костюмам и оригинальный сценарий.
Доп. информация: Автор рипа - AmPirCo. Добавлены две русские дорожки: многоголосый перевод взят с DVD R5. Двухголосый перевод неизвестного происхождения взят из раздачи maut512. Сохранено разбиение на главы оригинального BD.
Сэмпл
Тип релиза: BDRip 1080p
Контейнер: MKV
Видео: 1920x1040p (1,85:1), 23,976 fps, x264, 10500 kbps
Аудио 1: Russian - MVO (Dolby AC3, 2 ch) 192 Kbps / 48 000 Hz
Аудио 2: Russian - DVO (Dolby AC3, 2 ch) 192 Kbps / 48 000 Hz
Аудио 3: English (DTS, 2 ch) 1509 Kbps / 48 000 Hz
Субтитры: English

MediaInfo

Уникальный идентификатор : 198365449141006498720968928480169543075 (0x953BCBBC621636888FB8C21D5BC3C5A3)
Полное имя : The.Seven-Per-cent.Solution.(1976).BDRip.1080p.x264.RUS.AC3.ENG.DTS.mkv
Формат : Matroska
Версия формата : Version 4 / Version 2
Размер файла : 9,83 Гбайт
Продолжительность : 1 ч. 53 м.
Общий поток : 12,4 Мбит/сек
Название фильма : The Seven-Per-cent Solution (1976) BDRip 1080p
Дата кодирования : UTC 2014-08-30 15:56:04
Программа кодирования : mkvmerge v7.1.0 ('Good Love') 32bit built on Jul 27 2014 12:59:18
Библиотека кодирования : libebml v1.3.0 + libmatroska v1.4.1
DURATION : 01:53:31.488000000
NUMBER_OF_FRAMES : 212859
NUMBER_OF_BYTES : 163475712
_STATISTICS_WRITING_APP : mkvmerge v7.1.0 ('Good Love') 32bit built on Jul 27 2014 12:59:18
_STATISTICS_WRITING_DATE_UTC : 2014-08-30 15:56:04
_STATISTICS_TAGS : BPS DURATION NUMBER_OF_FRAMES NUMBER_OF_BYTES
Видео
Идентификатор : 1
Формат : AVC
Формат/Информация : Advanced Video Codec
Профиль формата : High@L4.1
Параметр CABAC формата : Да
Параметр ReFrames формата : 4 кадра
Идентификатор кодека : V_MPEG4/ISO/AVC
Продолжительность : 1 ч. 53 м.
Битрейт : 10,5 Мбит/сек
Ширина : 1920 пикселей
Высота : 1040 пикселей
Соотношение сторон : 1,85:1
Режим частоты кадров : Постоянный
Частота кадров : 23,976 кадра/сек
Цветовое пространство : YUV
Субдискретизация насыщенности : 4:2:0
Битовая глубина : 8 бит
Тип развёртки : Прогрессивная
Бит/(Пиксели*Кадры) : 0.219
Размер потока : 8,13 Гбайт (83%)
Библиотека кодирования : x264 core 142 r2431 ac76440
Настройки программы : cabac=1 / ref=4 / deblock=1:-3:-3 / analyse=0x3:0x113 / me=umh / subme=9 / psy=1 / psy_rd=1.00:0.00 / mixed_ref=1 / me_range=32 / chroma_me=1 / trellis=2 / 8x8dct=1 / cqm=0 / deadzone=21,11 / fast_pskip=0 / chroma_qp_offset=-2 / threads=6 / lookahead_threads=1 / sliced_threads=0 / nr=0 / decimate=1 / interlaced=0 / bluray_compat=0 / constrained_intra=0 / bframes=6 / b_pyramid=2 / b_adapt=2 / b_bias=0 / direct=3 / weightb=1 / open_gop=0 / weightp=2 / keyint=240 / keyint_min=23 / scenecut=40 / intra_refresh=0 / rc=2pass / mbtree=0 / bitrate=10500 / ratetol=1.0 / qcomp=0.60 / qpmin=10 / qpmax=51 / qpstep=4 / cplxblur=20.0 / qblur=0.5 / ip_ratio=1.40 / pb_ratio=1.30 / aq=1:1.00
Язык : English
Default : Да
Forced : Нет
DURATION : 01:53:31.524000000
NUMBER_OF_FRAMES : 163313
NUMBER_OF_BYTES : 8940449684
_STATISTICS_WRITING_APP : mkvmerge v7.1.0 ('Good Love') 32bit built on Jul 27 2014 12:59:18
_STATISTICS_WRITING_DATE_UTC : 2014-08-30 15:56:04
_STATISTICS_TAGS : BPS DURATION NUMBER_OF_FRAMES NUMBER_OF_BYTES
Аудио #1
Идентификатор : 2
Формат : AC-3
Формат/Информация : Audio Coding 3
Расширение режима : CM (complete main)
Параметр Endianness формата : Big
Идентификатор кодека : A_AC3
Продолжительность : 1 ч. 53 м.
Вид битрейта : Постоянный
Битрейт : 192 Кбит/сек
Каналы : 2 канала
Расположение каналов : Front: L R
Частота : 48,0 КГц
Битовая глубина : 16 бит
Метод сжатия : С потерями
Размер потока : 156 Мбайт (2%)
Заголовок : MVO
Язык : Russian
Default : Да
Forced : Нет
Аудио #2
Идентификатор : 3
Формат : AC-3
Формат/Информация : Audio Coding 3
Расширение режима : CM (complete main)
Параметр Endianness формата : Big
Идентификатор кодека : A_AC3
Продолжительность : 1 ч. 53 м.
Вид битрейта : Постоянный
Битрейт : 192 Кбит/сек
Каналы : 2 канала
Расположение каналов : Front: L R
Частота : 48,0 КГц
Битовая глубина : 16 бит
Метод сжатия : С потерями
Размер потока : 156 Мбайт (2%)
Заголовок : DVO
Язык : Russian
Default : Нет
Forced : Нет
Аудио #3
Идентификатор : 4
Формат : DTS
Формат/Информация : Digital Theater Systems
Режим : 16
Параметр Endianness формата : Big
Идентификатор кодека : A_DTS
Продолжительность : 1 ч. 53 м.
Вид битрейта : Постоянный
Битрейт : 1509 Кбит/сек
Каналы : 2 канала
Расположение каналов : Front: L R
Частота : 48,0 КГц
Битовая глубина : 24 бит
Метод сжатия : С потерями
Размер потока : 1,20 Гбайт (12%)
Заголовок : Original
Язык : English
Default : Нет
Forced : Нет
Текст
Идентификатор : 5
Формат : UTF-8
Идентификатор кодека : S_TEXT/UTF8
Идентификатор кодека/Информация : UTF-8 Plain Text
Язык : English
Default : Нет
Forced : Нет
Меню
00:00:00.000 : en:00:00:00.000
00:10:21.704 : en:00:10:21.704
00:19:20.326 : en:00:19:20.326
00:33:43.104 : en:00:33:43.104
00:44:17.405 : en:00:44:17.405
00:52:56.924 : en:00:52:56.924
01:02:30.664 : en:01:02:30.664
01:10:17.130 : en:01:10:17.130
01:18:40.716 : en:01:18:40.716
01:29:00.710 : en:01:29:00.710
01:41:00.555 : en:01:41:00.555
01:51:45.282 : en:01:51:45.282

Скриншоты


_________________
Показать сообщения:    

Текущее время: Сегодня 06:52

Часовой пояс: GMT



Вы не можете начинать темы
Вы не можете отвечать на сообщения
Вы не можете редактировать свои сообщения
Вы не можете удалять свои сообщения
Вы не можете голосовать в опросах
Вы не можете прикреплять файлы к сообщениям
Вы не можете скачивать файлы