Ивановский Торрент трекер
Яндекс.Погода
 

[Цитировать]
HUNTER

Криминальные архивы
Zone d'ombre- Год выпуска: 2012
Страна: Швейцария
Жанр: криминальная документалистика
Продолжительность: 04:01:10 (по ~00:01:00)
Перевод: Субтитры (перевод М. Лабори, К. Семенюк, Eclair Group)
Русские субтитры: есть
Режиссер: Ив Годель / Yves GodelОписание: Швейцарский телевизионный цикл "Зона теней / Zone d'ombre" знакомит зрителей с событиями и преступлениями прошлого, расследование которых по каким-либо причинам было не завершено, не все элементы и обстоятельства дела были выявлены, или результат судебного разбирательства оказался не убедительным, а вопросы и желание пролить свет на темные обстоятельства прошлого остались. Программа позволяет зрителю лучше понять запутанные механизмы преступлений и подойти к решению криминальных загадок, с чем не справилась в свое время система правосудия.
Доп. информация: Запись со спутника (телеканал TV5MONDE).
Сэмпл: http://multi-up.com/903358
качество: DVB
формат: MPEG-PS (См. при проблемах с просмотром видео)
Видео: MPEG Video 2, 720x576@1024x576 (16:9), 25 fps, ~2707 kbps avg, 0.261 bit/pixel
Аудио: Французский (48 kHz, MPEG Audio 2, 2 ch, ~192.00 kbps avg)
Формат субтитров: hardsub (неотключаемые)

Список выпусков/серий

Выпуск от 10.09.2013: Дело Бриджит Дидье/ L'affaire Brigitte Didier (2012)

Продолжительность: 01:01:23
Описание: 20 декабря 1990 года 18-летняя девушка поехала к зубному врачу и не вернулась домой. Ее тело было обнаружено под виадуком близ Биля. Бриджит Дидье была изнасилована и зверски убита. Все население района испытало шок. Кто убил Бриджит Дидье? У полиции не было зацепок. Расследование зашло в тупик. Но 10 лет спустя появились новые факты. Благодаря новым технологиям удалось выявить ДНК двух мужчин. Но именно из-за этих данных чуть не был осужден невинный человек…

Скриншоты


Резервные скриншоты


Выпуск от 17.09.2013: Исчезновение Ольги, убийство без трупа / Disparition d'Olga, un meurtre sans corps (2012)

Продолжительность: 00:55:57
Описание: 6 февраля 1999 года в Женеве пропала молодая перуанка, оставив свою годовалую дочь. Пропавшая была нелегалкой, ее звали Ольга Ламас. В течение нескольких месяцев никто не беспокоился об Ольге, не обращался в полицию. Думали, что она уехала в Испанию, она же занималась проституцией. Труп не был найден, место убийства было неизвестно, подозреваемых не имелось. 6 лет спустя 30 августа 2005 г. дело сдвинулось с мертвой точки. Одна женщина обвинила своего бывшего мужа в убийстве Ольги.

Скриншоты


Резервные скриншоты


Выпуск от 28.09.2013: Кто убил Грегори Мерсье? / Qui a tué Grégory Mercier? (2012)

Продолжительность: 01:01:16
Описание: Тело Грегори Мерсье было обнаружено ночью 6 августа 2011 года в месте тайных знакомств гомосексуалистов на территории Франции близ Женевы. Грегори был убит двумя выстрелами в голову. Кому он перешел дорогу? Кто дважды анонимно звонил в полицию?

Скриншоты


Резервные скриншоты


Выпуск от 05.10.2013: Что, если это была не собака? / Affaire Luca: et si ce n'était pas le chien? (2012)

Продолжительность: 01:02:34
Описание: Что, если вечером 7 февраля 2002 г. на Люку напала не собака? Сегодня мы вернемся к делу, о котором говорили в 2009 г. Расскажем о событиях, сломавших жизнь всей семье. Вы узнаете о ходе следствия. О вызванном психозе, о возникших подозрениях. За неимением улик следствие отказалось от версии, что на Люку напал человек. Но в деле до сих пор много неясного. Кто нанес ребенку царапины? Кто его раздел? Почему он впал в кому? Стоит ли верить рисунку младшего брата?

Скриншоты


Резервные скриншоты


MediaInfo

Полное имя : H:\My Torrents\[apreder]Zone_d'ombre\[apreder]Zone_d'ombre_L'affaire_Brigitte_Didier(2012)DVB.mpgФормат : MPEG-PSРазмер файла : 1,27 ГбайтПродолжительность : 1 ч. 1 м.Режим общего битрейта : ПеременныйОбщий поток : 2958 Кбит/сек
ВидеоИдентификатор : 224 (0xE0)Формат : MPEG VideoВерсия формата : Version 2Профиль формата : Main@MainПараметр BVOP формата : ДаПараметр матрицы формата : ВыборочнаяПараметр GOP формата : M=3, N=24Продолжительность : 1 ч. 1 м.Вид битрейта : ПеременныйБитрейт : 2707 Кбит/секШирина : 720 пикселейВысота : 576 пикселейСоотношение сторон : 16:9Частота кадров : 25,000 кадров/секСтандарт вещания : PALЦветовое пространство : YUVСубдискретизация насыщенности : 4:2:0Битовая глубина : 8 битМетод сжатия : С потерямиБит/(Пиксели*Кадры) : 0.261TimeCode_FirstFrame : 00:00:00:00TimeCode_Source : Group of pictures headerРазмер потока : 1,16 Гбайт (92%)
АудиоИдентификатор : 192 (0xC0)Формат : MPEG AudioВерсия формата : Version 1Профиль формата : Layer 2Продолжительность : 1 ч. 1 м.Вид битрейта : ПостоянныйБитрейт : 192 Кбит/секКаналы : 2 каналаЧастота : 48,0 КГцМетод сжатия : С потерямиРазмер потока : 84,4 Мбайт (6%)

-

Внимание! Раздача ведётся путём добавления новых выпусков

Внимание! Раздача ведётся путём добавления новых выпусков; при каждом добавлении создаётся новый торрент. Чтобы начать докачку нового выпуска, пользователям необходимо сделать следующее:
(1) остановить скачивание,
(2) удалить старый торрент у себя из клиента (старые серии удалять не надо),
(3) скачать новый торрент и запустить его у себя в клиенте вместо старого, при этом указать клиенту путь в старую папку куда и должно происходить скачивание новых выпусков.
Ваш клиент при этом должен произвести хеширование (проверку) старой папки (если не производит сам - помогите ему сделать это). В результате он будет докачивать только те выпуски, которых у Вас ещё нет. Старые выпуски при этом не удаляются, а продолжают раздаваться!
Eсли Вы уже удалили старые выпуски, то предотвратить их повторную закачку можно, сняв галочки в соответствующих местах при запуске нового торрента. По возможности, желательно не удалять старые выпуски как можно дольше, чтобы релизёр не только продолжал раздавать старые выпуски, но и смог сконцентрироваться на новых.
-970/952√
Показать сообщения:    

Текущее время: 22-Сен 09:01

Часовой пояс: UTC - 1


Вы не можете начинать темы
Вы не можете отвечать на сообщения
Вы не можете редактировать свои сообщения
Вы не можете удалять свои сообщения
Вы не можете голосовать в опросах
Вы не можете прикреплять файлы к сообщениям
Вы не можете скачивать файлы

!ВНИМАНИЕ!
Сайт не предоставляет электронные версии произведений, а занимается лишь коллекционированием и каталогизацией ссылок, присылаемых и публикуемых на форуме нашими читателями. Если вы являетесь правообладателем какого-либо представленного материала и не желаете, чтобы ссылка на него находилась в нашем каталоге, свяжитесь с нами, и мы незамедлительно удалим ее. Файлы для обмена на трекере предоставлены пользователями сайта, и администрация не несет ответственности за их содержание. Просьба не заливать файлы, защищенные авторскими правами, а также файлы нелегального содержания!