Ивановский Торрент трекер
Яндекс.Погода
 

[Цитировать]
HUNTER

Криминальная Россия - Братья по крови (ОРТ)
Год выпуска: 2007
Страна: Россия
Продолжительность: 00:26:01
Перевод: Не требуется
Русские субтитры: нет
Режиссер: Дэвид Гамбург
Описание: В 2006 году в Ростове-на-Дону бесследно исчезли супруги Раиса и Сергей Смолины. Как было установлено в результате расследования, два их собственных сына Александр и Михаил убили их и закопали в сарае. Суд приговорил их к 16 годам лишения свободы каждого.
Доп. информация: Серия от канала ОРТ, на трекере отсутствует.
Существует так же серия от НТВ с таким же названием, но абсолютно иным сюжетом, не путайтесь
качество: DVDRip
формат: AVI
Видео: XviD, 720*576, 4:3, 1 696 Kbps, 25.000 fps
Аудио: AC-3, 128 Kbps, 48.0 KHz, 2 channels

MediaInfo

General
Complete name : E:\Архив\Криминальная Россия\159. Братья по крови.avi
Format : AVI
Format/Info : Audio Video Interleave
File size : 341 MiB
Duration : 26mn 0s
Overall bit rate : 1 834 Kbps
Writing application : VirtualDubModRus 1.5.10.2 (build 2542/release)
Writing library : VirtualDubMod build 2542/release
Video
ID : 0
Format : MPEG-4 Visual
Format profile : Advanced Simple@L5
Format settings, BVOP : Yes
Format settings, QPel : No
Format settings, GMC : No warppoints
Format settings, Matrix : Default (H.263)
Muxing mode : Packed bitstream
Codec ID : XVID
Codec ID/Hint : XviD
Duration : 26mn 0s
Bit rate : 1 696 Kbps
Width : 720 pixels
Height : 576 pixels
Display aspect ratio : 5:4
Frame rate : 25.000 fps
Standard : PAL
Color space : YUV
Chroma subsampling : 4:2:0
Bit depth : 8 bits
Scan type : Progressive
Compression mode : Lossy
Bits/(Pixel*Frame) : 0.164
Stream size : 316 MiB (92%)
Writing library : XviD 58
Audio
ID : 1
Format : AC-3
Format/Info : Audio Coding 3
Mode extension : CM (complete main)
Codec ID : 2000
Duration : 26mn 0s
Bit rate mode : Constant
Bit rate : 128 Kbps
Channel(s) : 2 channels
Channel positions : Front: L R
Sampling rate : 48.0 KHz
Bit depth : 16 bits
Compression mode : Lossy
Stream size : 23.8 MiB (7%)
Alignment : Split accross interleaves
Interleave, duration : 40 ms (1.00 video frame)
Interleave, preload duration : 500 ms

Скриншоты




Показать сообщения:    

Текущее время: 25-Сен 12:30

Часовой пояс: UTC - 1


Вы не можете начинать темы
Вы не можете отвечать на сообщения
Вы не можете редактировать свои сообщения
Вы не можете удалять свои сообщения
Вы не можете голосовать в опросах
Вы не можете прикреплять файлы к сообщениям
Вы не можете скачивать файлы

!ВНИМАНИЕ!
Сайт не предоставляет электронные версии произведений, а занимается лишь коллекционированием и каталогизацией ссылок, присылаемых и публикуемых на форуме нашими читателями. Если вы являетесь правообладателем какого-либо представленного материала и не желаете, чтобы ссылка на него находилась в нашем каталоге, свяжитесь с нами, и мы незамедлительно удалим ее. Файлы для обмена на трекере предоставлены пользователями сайта, и администрация не несет ответственности за их содержание. Просьба не заливать файлы, защищенные авторскими правами, а также файлы нелегального содержания!