Ивановский Торрент трекер
Яндекс.Погода
 

[Цитировать]
HUNTER

Криминальная Россия: Современные Хроники
Год выпуска: 1995-2010
Страна: Россия
Жанр: Документальный фильм
Продолжительность: серия ~25 мин
Перевод: Не требуется
Русские субтитры: нет
Режиссер: Андрей Карпенко
Описание: Каждый фильм из серии "Криминальная Россия" представляет собой законченную историю, основанную на подлинных материалах уголовных дел. Это захватывающий детектив, уникальная комбинация документального и художественного фильма, превосходящая в своей прямоте, способе подачи, информативности все передачи подобного жанра.
DVD-1
1. ДЕСЯТЬ ЛЕТ СПУСТЯ 2 СЕРИИ
2. АДСКИЙ ТЕЛЕФОН 2 СЕРИИ
3. КЕМЕРОВСКАЯ ЗАЧИСТКА 2 СЕРИИ
4. ЧИСТИЛЬЩИК 2 СЕРИИ
5. ФАЛЬШИВОМОНЕТЧИКИ 2 СЕРИИ
6. ЛЮБИТЕЛИ ИСКУССТВА 2 СЕРИИ
7. КРАСАВИЦЫ И ЧУДОВИЩА 3 СЕРИИ
8. ОБЖАЛОВАНИЮ НЕ ПОДЛЕЖИТ 4 СЕРИИ
9. ОФИЦЕРСКАЯ РУЛЕТКА 2 СЕРИИ
10. РАСПЛАТА ПО ДОЛГАМ
11. КУРОРТНЫЙ КАПКАН 2 СЕРИИ
DVD-2
1. НА ДНЕ 2 СЕРИИ (2 СЕРИИ)
2. ПОГРУЖЕНИЕ В АД (2 СЕРИИ)
3. ОПЕРУПОЛНОМОЧЕННЫЙ ГЛАВАРЬ (2 СЕРИИ)
4. ОХОТНИКИ В ПАРАДНЫХ (2 СЕРИИ)
5. ГЕН УБИЙЦЫ (2 СЕРИИ)
6. НЕУЛОВИМЫЕ НАЛЕТЧИКИ (2 СЕРИИ)
7. ТВАРЬ ДРОЖАЩАЯ (2 СЕРИИ)
8. ВЕСЕННИЙ МАРАФОН (2 СЕРИИ)
9. БИТВА ПРИ ЖИГУЛЯХ (4 СЕРИИ)
10. ОТПРАВИТЕЛЬ
11. ОПАСНОЕ КИНО
12. НЕОЛИМПИЙСКИЙ РЕЗЕРВ
13. ОХОТА НА КРАСОТУ1
DVD-3
1. МАШИНА ДЛЯ УБИЙСТВА (2 СЕРИИ)
2. ВЕСЕЛЫЕ РЕБЯТА (2 СЕРИИ)
3. НЕОБУЗДАННЫЙ ИНСТИНКТ ( 2 СЕРИИ)
4. ИГРОКИ (2 СЕРИИ)
5. РОМАНТИКИ С БОЛЬШОЙ ДОРОГИ (2 СЕРИИ)
6. ТРИ ТОВАРИЩА (2 СЕРИИ)
7. ЗАТМЕНИЕ
8. БРАТЬЯ ПО КРОВИ
9. КАМСКИЙ СПРУТ (2 СЕРИИ)
10. ВЕЛИКОЕ ПРОТИВОСТОЯНИЕ (4 СЕРИИ)
11. ЛОВУШКА ДЛЯ ОДИНОКОГО МУЖЧИНЫ (2 СЕРИИ)
12. ПРЕДАТЕЛИ (2 СЕРИИ)
DVD-4
1. ЕГО ЗВАЛИ НИКИТА (2 СЕРИИ)
2. ПРЕДЪЯВИТЕ ВАЛЮТУ (2 СЕРИИ)
3. КАЗАКИ-РАЗБОЙНИКИ (2 СЕРИИ)
4. ПРОФЕССИОНАЛЫ (2 СЕРИИ)
5. ДОРОГА В АД (2 СЕРИИ)
6. ДЕЛО САНИТАРОВ (2 СЕРИИ)
7. НИКИТА ИЗ ПОДМОСКОВЬЯ
8. ВОЛК В ОВЕЧЬЕЙ ШКУРЕ
9. КОНЕЦ БРИГАДЫ
10. ПРАВО НА НАДЕЖДУ
11. СМЕРТЕЛЬНЫЙ ЗВОНОК (2 СЕРИИ)
12. ФАКУЛЬТЕТ УБИЙЦ (2 СЕРИИ)
13. ПОСЛЕДНИЙ УЗЕЛ (2 СЕРИИ)
14. БРИЛЛИАНТЫ ДЛЯ МАФИИ (2 СЕРИИ
DVD-5
1. ТРИНАДЦАТЫЙ ДРАКОН (2 СЕРИИ)
2. ОГНЕННЫЙ СЛЕД (2 СЕРИИ)
3. ДЬЯВОЛИЦА (2 СЕРИИ)
4. КРЫСОЛОВЫ (2 СЕРИИ)
5. ВЕЗИ МЕНЯ, ИЗВОЗЧИК (2 СЕРИИ)
6. ОСТОРОЖНО: КВАРТИРАНТ! (2 СЕРИИ)
7. ЛИШНЯЯ РОДНЯ
8. ДОРОГА В ОДИН КОНЕЦ
9. ВЛЮБЛЁН И ОЧЕНЬ ОПАСЕН
10. УДАРНАЯ ДОЗА
11. ЛЕШИЙ
12. ИДУЩИЙ ПО ПЯТАМ
13. ПРОПАВШИЕ АВТОВЛАДЕЛЬЦЫ (2 СЕРИИ)
14. РЕБЯТА С ОДНОГО ДВОРА (2 СЕРИИ)
15. ЖЕСТОКИЙ КВАРТИРАНТ (2 СЕРИИ)
DVD-6
1. ОПАСНЫЕ ПРАЗДНИКИ (2 СЕРИИ)
2. ЛЮДИ ИСЧЕЗАЮТ С ПОЛДЕНЬ (2 СЕРИИ)
3. РЕПОРТАЖ С ТОГО СВЕТА (2 СЕРИИ)
4. ПО СДЕДУ СИБИРСКОГО ЗВЕРЯ (2 СЕРИИ)
5. ПОСЛЕДНИЙ РОМАН ОБОЛЬСТИТЕЛЯ (2 СЕРИИ)
6. ЕВРОРЕМОНТ ДЛЯ УБИЙЦЫ (2 СЕРИИ)
7. НОЧНЫЕ ЯСТРЕБЫ (2 СЕРИИ)
8. ПРОПИСКА С ТОГО СВЕТА (2 СЕРИИ)
9. ПАЛАЧИ (2 СЕРИИ)
10. МОНСТР ИЗ СТАРОЖИЛОВА (2 СЕРИИ)
11. ОГНЕННЫЙ КАПКАН
12. ВКУС ДОБЫЧИ
13. БЕЗУМНАЯ СЕМЕЙКА
14. ПЕРЕЕЗД НА ТОТ СВЕТ
DVD-7
1. Диагноз - квартира (2 серии)
2. Злодей на все руки (2 серии)
3. Зомби (2 серии)
4. Тульская бойня (2 серии)
5. Особенности провинциального сыска (2 серии)
6. Банда Архивариуса (2 серии)
7. Семейный подряд (2 серии)
8. Овечкины (2 серии)
9. Дело Мурилева. Смерть за квартиры
10. Синдикат убийц
11. Курганский терминатор
12. Кооператив "Узник"
13. Сибирский потрошитель (2 серии)
14. Деревенский киллер
15. Особенности национальной разборки (2 серии)
DVD-8
1. ТАЙНА КРАСНОЙ МАШИНЫ
2. СМЕРТОНОСНОЕ ТРИО
3. В ТИХОИ ОМУТЕ
4. ЗАМИНИРОВАННЫЙ ГОРОД
5. РОКОВЫЕ МЕТРЫ
6. ОХОТА НА ПРЫГУНОВ
7. ПОСЛЕДНЕЕ ДЕЛО ПУШКИНА (1+2)
8. НЕУЛОВИМЫЙ ПРИВКУС СМЕРТИ (1+2)
9. УБИЙСТВО ПО ОБЪЯВЛЕНИЮ (1+2)
10. ОПЕРАЦИЯ СПРУТ (1+2)
11. ДВОЙНОЕ УБИЙСТВО
12. АДСКАЯ БОЧКА (1+2)
13. КОНОПЛЯННЫЙ РЕЙС
14. УБИТЬ ПО-АМЕРИКАНСКИ(1+2)
15. НЕУТОМИМЫЙ ЗАКАЗЧИК
16. ЖИГУЛЕВСКАЯ БИТВА (1+2+3)
Качество: DVD9 - sample
Видео кодек: MPEG
Аудио кодек: AC3
Видео: PAL 4:3 (720x576), VBR (8000-9000 kb/s), 25 fps
Аудио: AC3, 2/0 ch, 192Kbps, 48.0 KHz

Media Info

Complete name : D:Kriminalnaja RosijaDISK_1_1VIDEO_TSVTS_01_1.VOB
Format : MPEG-PS
File size : 1 000 MiB
Duration : 10mn 50s
Overall bit rate mode : Variable
Overall bit rate : 12.9 Mbps
Writing library : (c) 1998-2010 Womble Multimedia, Inc. / MPEG Video
Wizard DVD 5.0 (01/2010) / Jan 25 2010
Video
ID : 224 (0xE0)
Format : MPEG Video
Format version : Version 2
Format profile : Main@Main
Format settings, BVOP : Yes
Format settings, Matrix : Default
Format settings, GOP : M=3, N=15
Duration : 10mn 50s
Bit rate mode : Variable
Bit rate : 12.4 Mbps
Maximum bit rate : 9 300 Kbps
Width : 720 pixels
Height : 576 pixels
Display aspect ratio : 4:3
Frame rate : 25.000 fps
Standard : PAL
Color space : YUV
Chroma subsampling : 4:2:0
Bit depth : 8 bits
Scan type : Progressive
Scan order : Bottom Field First
Compression mode : Lossy
Bits/(Pixel*Frame) : 1.200
Stream size : 965 MiB (97%)
Writing library : (c) 1998-2010 Womble Multimedia, Inc. / MPEG Video
Wizard DVD 5.0 (01/2010) / Jan 25 2010
Audio
ID : 189 (0xBD)-128 (0x80)
Format : AC-3
Format/Info : Audio Coding 3
Mode extension : CM (complete main)
Muxing mode : DVD-Video
Duration : 10mn 50s
Bit rate mode : Constant
Bit rate : 192 Kbps
Channel(s) : 2 channels
Channel positions : Front: L R
Sampling rate : 48.0 KHz
Bit depth : 16 bits
Compression mode : Lossy
Delay relative to video : -80ms
Stream size : 14.9 MiB (1%)
Complete name : D:Kriminalnaja RosijaDISK_8_2VIDEO_TSVTS_01_5.VOB
Format : MPEG-PS
File size : 363 MiB
Duration : 20s 160ms
Overall bit rate mode : Variable
Overall bit rate : 151 Mbps
Video
ID : 224 (0xE0)
Format : MPEG Video
Format version : Version 2
Format profile : Main@Main
Format settings, BVOP : Yes
Format settings, Matrix : Custom
Format settings, GOP : M=3, N=18
Duration : 20s 120ms
Bit rate mode : Variable
Bit rate : 148 Mbps
Maximum bit rate : 8 000 Kbps
Width : 720 pixels
Height : 576 pixels
Display aspect ratio : 4:3
Frame rate : 25.000 fps
Standard : PAL
Color space : YUV
Chroma subsampling : 4:2:0
Bit depth : 8 bits
Scan type : Progressive
Compression mode : Lossy
Bits/(Pixel*Frame) : 14.260
Stream size : 355 MiB (98%)
Color primaries : BT.470-2 System B, BT.470-2 System G
Transfer characteristics : BT.470-2 System B, BT.470-2 System G
Matrix coefficients : BT.470-2 System B, BT.470-2 System G
Audio
ID : 189 (0xBD)-128 (0x80)
Format : AC-3
Format/Info : Audio Coding 3
Mode extension : CM (complete main)
Muxing mode : DVD-Video
Duration : 20s 160ms
Bit rate mode : Constant
Bit rate : 128 Kbps
Channel(s) : 2 channels
Channel positions : Front: L R
Sampling rate : 48.0 KHz
Bit depth : 16 bits
Compression mode : Lossy
Delay relative to video : -168ms
Stream size : 315 KiB (0%)

Скриншоты Меню



Скриншоты

Показать сообщения:    

Текущее время: 23-Окт 18:04

Часовой пояс: UTC - 1


Вы не можете начинать темы
Вы не можете отвечать на сообщения
Вы не можете редактировать свои сообщения
Вы не можете удалять свои сообщения
Вы не можете голосовать в опросах
Вы не можете прикреплять файлы к сообщениям
Вы не можете скачивать файлы

!ВНИМАНИЕ!
Сайт не предоставляет электронные версии произведений, а занимается лишь коллекционированием и каталогизацией ссылок, присылаемых и публикуемых на форуме нашими читателями. Если вы являетесь правообладателем какого-либо представленного материала и не желаете, чтобы ссылка на него находилась в нашем каталоге, свяжитесь с нами, и мы незамедлительно удалим ее. Файлы для обмена на трекере предоставлены пользователями сайта, и администрация не несет ответственности за их содержание. Просьба не заливать файлы, защищенные авторскими правами, а также файлы нелегального содержания!