Ивановский Торрент трекер
Яндекс.Погода
 

[Цитировать]
HUNTER

Крикуны / Screamers- Страна: Канада, США, Япония
Студия: Allegro Films, Fries Film Group, Fuji Eight Company Ltd., Triumph Films
Жанр: Ужасы, фантастика, боевик, триллер, приключения
Год выпуска: 1995
Продолжительность: 01:48:22
Перевод 1: Профессиональный (дублированный) ВидеоCервис, R5
Перевод 2: Профессиональный (двухголосый закадровый) ВидеоСервис, VHS
Перевод 3: Профессиональный (многоголосый закадровый) ВидеоCервис, VHS_v.2 & R5
Перевод 4: Профессиональный (многоголосый закадровый) н/о
Перевод 5: Профессиональный (многоголосый закадровый) ТВ3
Перевод 6: Одноголосый закадровый Д. Есарев
Перевод 7: Авторский (одноголосый закадровый) П. Карцев
Перевод 8: Авторский (одноголосый закадровый) С. Визгунов
Cубтитры: Русские, Английские
Оригинальная аудиодорожка: Английский
Режиссер: Кристиан Дюге / Christian Duguay
В ролях: Питер Уэллер, Рой Дюпюи, Дженнифер Рубин, Эндрю Лоэр, Чарльз Эдвин Пауэлл, Рон Уайт, Майкл Калоз, Лилиана Коморовска, Джейсон Кавалье, Лени Паркер.
Описание: 2078 год. Офицер Содружества - армии повстанцев - полковник Джозеф Хендрикссон назначен руководить обороной заставы на планете Сириус-6Б, ставшей опорным пунктом в противостоянии с НЭБ - Новым Экономическим Блоком. Главный козырь Содружества в войне с НЭБ - это Крикуны, сверхновое оружие, запрограммированное на уничтожение всех форм жизни.-Рейтинг
-Сэмпл
Тип релиза: WEB-DL 1080p
Контейнер: MKV
Видео: 1920x1080 (16:9), 23.976 fps, x264, ~14400 kbps
Аудио 1: Russian: 48 kHz, AC3, 3/2 (L,C,R,l,r) + LFE ch, ~384 kbps | Дубляж, ВидеоCервис, R5
Аудио 2: Russian: 48 kHz, AC3, 2/0 (L,R) ch, ~192 kbps | Двухголосый закадровый, ВидеоСервис, VHS
Аудио 3: Russian: 48 kHz, AC3, 2/0 (L,R) ch, ~192 kbps | Многоголосый закадровый, ВидеоCервис, VHS_v.2 & R5
Аудио 4: Russian: 48 kHz, AC3, 3/2 (L,C,R,l,r) + LFE ch, ~384 kbps | Многоголосый закадровый, н/о
Аудио 5: Russian: 48 kHz, AC3, 2/0 (L,R) ch, ~192 kbps | Многоголосый закадровый, ТВ3
Аудио 6: Russian: 48 kHz, AC3, 3/2 (L,C,R,l,r) + LFE ch, ~384 kbps | Одноголосый закадровый, Д. Есарев
Аудио 7: Russian: 48 kHz, AC3, 3/2 (L,C,R,l,r) + LFE ch, ~384 kbps | Одноголосый закадровый, П. Карцев
Аудио 8: Russian: 48 kHz, AC3, 2/0 (L,R) ch, ~192 kbps | Одноголосый закадровый, С. Визгунов
Аудио 9: English: 48 kHz, E-AC3, 3/2 (L,C,R,l,r) + LFE ch, ~640 kbps
Субтитры: Русские (Full), Английские (SDH)
Формат субтитров: softsub (SRT)

Дополнительно

За аудио дорожки спасибо: Steal, psicho, Demosfen, gig_Panas, cinephil.
Перевод Д. Есарева, доступен благодаря ресурсу "Переулок Переводмана". Заказ перевода mihey10, mihaildns. Работа со звуком Perevodman.

MediaInfo

Общее
Unique ID : 171960763404056853930933708243497755838 (0x815E7037B3E6034B91ADE21E4DF1A4BE)
Complete name : E:\video_rutracker\Screamers.1995.WEB-DL.1080p.8xRus.Eng.H.264.mkv
Format : Matroska
Format version : Version 2
File size : 13,2 Гбайт
Duration : 1 ч. 48 м.
Overall bit rate mode : Переменный
Overall bit rate : 17,4 Мбит/сек
Movie name : Screamers.1995.WEB-DL.1080p | RuTracker | igrok2012
Encoded date : UTC 2016-08-26 18:52:22
Writing application : mkvmerge v8.3.0 ('Over the Horizon') 64bit
Writing library : libebml v1.3.1 + libmatroska v1.4.2
Cover : Yes
Attachments : cover.jpg
Видео
ID : 1
Format : AVC
Format/Info : Advanced Video Codec
Format profile : High@L4
Format settings, CABAC : Да
Format settings, ReFrames : 4 кадра
Codec ID : V_MPEG4/ISO/AVC
Duration : 1 ч. 48 м.
Bit rate mode : Переменный
Bit rate : 14,1 Мбит/сек
Maximum bit rate : 15,0 Мбит/сек
Width : 1920 пикселей
Height : 1080 пикселей
Display aspect ratio : 16:9
Frame rate mode : Постоянный
Frame rate : 23,976 (24000/1001) кадра/сек
Color space : YUV
Chroma subsampling : 4:2:0
Bit depth : 8 бит
Scan type : Прогрессивная
Bits/(Pixel*Frame) : 0.283
Stream size : 10,7 Гбайт (81%)
Writing library : x264 core 148 r2623 d5b2374
Encoding settings : cabac=1 / ref=4 / deblock=1:-1:-1 / analyse=0x3:0x133 / me=umh / subme=9 / psy=1 / psy_rd=1.00:0.15 / mixed_ref=1 / me_range=24 / chroma_me=1 / trellis=2 / 8x8dct=1 / cqm=0 / deadzone=21,11 / fast_pskip=1 / chroma_qp_offset=-3 / threads=34 / lookahead_threads=5 / sliced_threads=0 / nr=150 / decimate=1 / interlaced=0 / bluray_compat=0 / constrained_intra=0 / bframes=8 / b_pyramid=2 / b_adapt=2 / b_bias=0 / direct=3 / weightb=1 / open_gop=0 / weightp=2 / keyint=120 / keyint_min=61 / scenecut=0 / intra_refresh=0 / rc_lookahead=120 / rc=crf / mbtree=1 / crf=18.0 / qcomp=0.60 / qpmin=0 / qpmax=69 / qpstep=4 / vbv_maxrate=15000 / vbv_bufsize=31250 / crf_max=0.0 / nal_hrd=vbr / filler=0 / ip_ratio=1.40 / aq=3:1.00
Default : Да
Forced : Нет
Color range : Limited
Color primaries : BT.709
Transfer characteristics : BT.709
Matrix coefficients : BT.709
Аудио #1
ID : 2
Format : AC-3
Format/Info : Audio Coding 3
Mode extension : CM (complete main)
Format settings, Endianness : Big
Codec ID : A_AC3
Duration : 1 ч. 48 м.
Bit rate mode : Постоянный
Bit rate : 384 Кбит/сек
Channel(s) : 6 каналов
Channel positions : Front: L C R, Side: L R, LFE
Sampling rate : 48,0 КГц
Frame rate : 31,250 кадров/сек (1536 spf)
Compression mode : С потерями
Stream size : 298 Мбайт (2%)
Title : Дубляж, ВидеоCервис, R5
Language : Russian
Default : Да
Forced : Нет
Аудио #2
ID : 3
Format : AC-3
Format/Info : Audio Coding 3
Mode extension : CM (complete main)
Format settings, Endianness : Big
Codec ID : A_AC3
Duration : 1 ч. 48 м.
Bit rate mode : Постоянный
Bit rate : 192 Кбит/сек
Channel(s) : 2 канала
Channel positions : Front: L R
Sampling rate : 48,0 КГц
Frame rate : 31,250 кадров/сек (1536 spf)
Compression mode : С потерями
Stream size : 149 Мбайт (1%)
Title : Двухголосый закадровый, ВидеоСервис, VHS
Language : Russian
Default : Нет
Forced : Нет
Аудио #3
ID : 4
Format : AC-3
Format/Info : Audio Coding 3
Mode extension : CM (complete main)
Format settings, Endianness : Big
Codec ID : A_AC3
Duration : 1 ч. 48 м.
Bit rate mode : Постоянный
Bit rate : 192 Кбит/сек
Channel(s) : 2 канала
Channel positions : Front: L R
Sampling rate : 48,0 КГц
Frame rate : 31,250 кадров/сек (1536 spf)
Compression mode : С потерями
Stream size : 149 Мбайт (1%)
Title : Многоголосый закадровый, ВидеоCервис, VHS_v.2 & R5
Language : Russian
Default : Нет
Forced : Нет
Аудио #4
ID : 5
Format : AC-3
Format/Info : Audio Coding 3
Mode extension : CM (complete main)
Format settings, Endianness : Big
Codec ID : A_AC3
Duration : 1 ч. 48 м.
Bit rate mode : Постоянный
Bit rate : 384 Кбит/сек
Channel(s) : 6 каналов
Channel positions : Front: L C R, Side: L R, LFE
Sampling rate : 48,0 КГц
Frame rate : 31,250 кадров/сек (1536 spf)
Compression mode : С потерями
Stream size : 298 Мбайт (2%)
Title : Многоголосый закадровый
Language : Russian
Default : Нет
Forced : Нет
Аудио #5
ID : 6
Format : AC-3
Format/Info : Audio Coding 3
Mode extension : CM (complete main)
Format settings, Endianness : Big
Codec ID : A_AC3
Duration : 1 ч. 48 м.
Bit rate mode : Постоянный
Bit rate : 192 Кбит/сек
Channel(s) : 2 канала
Channel positions : Front: L R
Sampling rate : 48,0 КГц
Frame rate : 31,250 кадров/сек (1536 spf)
Compression mode : С потерями
Stream size : 149 Мбайт (1%)
Title : Многоголосый закадровый, ТВ3
Language : Russian
Default : Нет
Forced : Нет
Аудио #6
ID : 7
Format : AC-3
Format/Info : Audio Coding 3
Mode extension : CM (complete main)
Format settings, Endianness : Big
Codec ID : A_AC3
Duration : 1 ч. 48 м.
Bit rate mode : Постоянный
Bit rate : 384 Кбит/сек
Channel(s) : 6 каналов
Channel positions : Front: L C R, Side: L R, LFE
Sampling rate : 48,0 КГц
Frame rate : 31,250 кадров/сек (1536 spf)
Compression mode : С потерями
Stream size : 298 Мбайт (2%)
Title : Одноголосый закадровый, Д. Есарев
Language : Russian
Default : Нет
Forced : Нет
Аудио #7
ID : 8
Format : AC-3
Format/Info : Audio Coding 3
Mode extension : CM (complete main)
Format settings, Endianness : Big
Codec ID : A_AC3
Duration : 1 ч. 48 м.
Bit rate mode : Постоянный
Bit rate : 384 Кбит/сек
Channel(s) : 6 каналов
Channel positions : Front: L C R, Side: L R, LFE
Sampling rate : 48,0 КГц
Frame rate : 31,250 кадров/сек (1536 spf)
Compression mode : С потерями
Stream size : 298 Мбайт (2%)
Title : Одноголосый закадровый, П. Карцев
Language : Russian
Default : Нет
Forced : Нет
Аудио #8
ID : 9
Format : AC-3
Format/Info : Audio Coding 3
Mode extension : CM (complete main)
Format settings, Endianness : Big
Codec ID : A_AC3
Duration : 1 ч. 48 м.
Bit rate mode : Постоянный
Bit rate : 192 Кбит/сек
Channel(s) : 2 канала
Channel positions : Front: L R
Sampling rate : 48,0 КГц
Frame rate : 31,250 кадров/сек (1536 spf)
Compression mode : С потерями
Stream size : 149 Мбайт (1%)
Title : Одноголосый закадровый, С. Визгунов
Language : Russian
Default : Нет
Forced : Нет
Аудио #9
ID : 10
Format : E-AC-3
Format/Info : Audio Coding 3
Format settings, Endianness : Big
Codec ID : A_EAC3
Duration : 1 ч. 48 м.
Bit rate mode : Постоянный
Bit rate : 640 Кбит/сек
Channel(s) : 6 каналов
Channel positions : Front: L C R, Side: L R, LFE
Sampling rate : 48,0 КГц
Frame rate : 187,500 кадров/сек (256 spf)
Compression mode : С потерями
Stream size : 496 Мбайт (4%)
Language : English
Default : Нет
Forced : Нет
Текст #1
ID : 11
Format : UTF-8
Codec ID : S_TEXT/UTF8
Codec ID/Info : UTF-8 Plain Text
Language : Russian
Default : Нет
Forced : Нет
Текст #2
ID : 12
Format : UTF-8
Codec ID : S_TEXT/UTF8
Codec ID/Info : UTF-8 Plain Text
Language : English
Default : Нет
Forced : Нет
Меню
00:00:00.000 : en:Start
00:01:58.000 : en:Sirius 6b
00:05:54.000 : en:Calvary Attack
00:08:55.000 : en:Retrieval Expedition
00:11:14.000 : en:Col. Hendricksson
00:18:52.000 : en:Crash Site
00:25:56.000 : en:"We Are Betrayed"
00:30:01.000 : en:Peace Mission
00:32:10.000 : en:History Lesson
00:35:58.000 : en:David
00:39:33.000 : en:Campsite
00:41:55.000 : en:An Upgrade
00:45:18.000 : en:Not A Real Boy
00:48:51.000 : en:Down To The Bunker
00:52:00.000 : en:Jessica
00:59:19.000 : en:Into The Tunnels
01:02:11.000 : en:The Command Center
01:04:27.000 : en:Uplink Interrupted
01:08:00.000 : en:Reading The Tags
01:10:07.000 : en:"Can I Come With You?"
01:11:22.000 : en:Wasted For No Reason
01:16:34.000 : en:Becker & The Rookie
01:18:57.000 : en:Type 3
01:23:11.000 : en:Type 2
01:26:33.000 : en:"I Had To Know"
01:30:57.000 : en:New Alamo Site
01:32:19.000 : en:Preparing To Launch
01:39:18.000 : en:Killing Each Other

Скриншоты


Показать сообщения:    

Текущее время: 20-Окт 18:58

Часовой пояс: UTC - 1


Вы не можете начинать темы
Вы не можете отвечать на сообщения
Вы не можете редактировать свои сообщения
Вы не можете удалять свои сообщения
Вы не можете голосовать в опросах
Вы не можете прикреплять файлы к сообщениям
Вы не можете скачивать файлы

!ВНИМАНИЕ!
Сайт не предоставляет электронные версии произведений, а занимается лишь коллекционированием и каталогизацией ссылок, присылаемых и публикуемых на форуме нашими читателями. Если вы являетесь правообладателем какого-либо представленного материала и не желаете, чтобы ссылка на него находилась в нашем каталоге, свяжитесь с нами, и мы незамедлительно удалим ее. Файлы для обмена на трекере предоставлены пользователями сайта, и администрация не несет ответственности за их содержание. Просьба не заливать файлы, защищенные авторскими правами, а также файлы нелегального содержания!