Важное объявление!
У Нас Все раздачи мультитрекерные, при нуле пиров в релизах, можете смело вставать на закачку!
Статистика раздачи
Размер:     |    Зарегистрирован:     |    Скачан:     |   
Нет
 
     
 
 
Автор Сообщение

HUNTER

Стаж:
5 лет
Сообщений:
68426

Репутация: 101

[+] [-]
Вне форума [Профиль] [ЛС]

Крикуны / Screamers
Страна: Канада, США, Япония
Жанр: ужасы, фантастика, боевик, триллер, приключения
Год выпуска: 1995
Продолжительность: 01:48:22
Перевод 1: Профессиональный (дублированный) ВидеоСервис
Перевод 2: Профессиональный (двухголосый закадровый) ВидеоСервис
Перевод 3: Профессиональный (многоголосый закадровый) ВидеоСервис
Перевод 4: Профессиональный (многоголосый закадровый)
Перевод 5: Профессиональный (многоголосый закадровый) ТВ3
Перевод 6: Авторский (одноголосый закадровый) Карцев
Перевод 7: Авторский (одноголосый закадровый) Визгунов
Cубтитры: русские, английские
Оригинальная аудиодорожка: английский
Режиссер: Кристиан Дюге / Christian DuguayВ ролях: Питер Уэллер, Рой Дюпюи, Дженнифер Рубин, Эндрю Лоэр, Чарльз Эдвин Пауэлл, Рон Уайт, Майкл Калоз, Лилиана Коморовска, Джейсон Кавалье, Лени ПаркерОписание: 2078 год. Офицер Альянса — армии повстанцев — полковник Джозеф Хендрикссон руководит обороной заставы горнодобывающей колонии на планете Сириус-6Б, ставшей опорным пунктом в противостоянии с НЭБ (Новым Экономическим Блоком) за добычу бериния — нового вида топлива, решения глобального энергетического кризиса . Главный козырь Альянса в войне с НЭБ — это Крикуны, сверхновое оружие, запрограммированное на уничтожение всех форм жизни.По мотивам рассказа Филипа К. Дика - "Вторая Модель"[Philip K. Dick - "Second Variety"]Доп. информация:
Исодник: 720p.WEB-DL HDclub
Сэмпл: СКАЧАТЬ
Качество видео: WEB-DL
Формат видео: MKV
Видео: 1280x716 [16:9], 23.976 fps, AVC, 3859 kbps avg, 0.176 bits/(pixel*frame)
Аудио 1: 48kHz AC3 5.1 384Kbps DUB (ВидеоCервис) [R5]
Аудио 2: 48kHz AC3 2.0 192Kbps DVO ( ВидеоСервис) [VHS] взята из раздачи Stuey
Аудио 3: 48kHz AC3 2.0 192Kbps MVO (ВидеоCервис) [VHS_v.2 & R5]
Аудио 4: 48kHz AC3 5.1 384Kbps MVO
Аудио 5: 48kHz AC3 2.0 192Kbps MVO (ТВ3) взята из раздачи Stuey
Аудио 6: 48kHz AC3 5.1 384Kbps AVO (Карцев)
Аудио 7: 48kHz AC3 2.0 192Kbps AVO (Визгунов) взята из раздачи Stuey
Аудио 8: 48kHz AC3 5.1 384Kbps ENG (original)
Формат субтитров: softsub (SRT)

MediaInfo

File name : Screamers.1995.720p.WEB-DL.7xRUS.ENG.SUB.mkv
Format : Matroska
Format version : Version 2
File size : 4.76 GiB
Duration : 1h 48mn
Overall bit rate : 6 288 Kbps
Encoded date : UTC 2014-03-10 14:24:14
Writing application : mkvmerge v4.6.0 ('Still Crazy After All These Years') сборка от Mar 10 2011 02:50:32
Writing library : libebml v1.2.0 + libmatroska v1.1.0
Video
ID : 1
Format : AVC
Format/Info : Advanced Video Codec
Format profile : High@L3.1
Format settings, CABAC : No
Format settings, ReFrames : 2 frames
Codec ID : V_MPEG4/ISO/AVC
Duration : 1h 48mn
Bit rate : 3 859 Kbps
Width : 1 280 pixels
Height : 716 pixels
Display aspect ratio : 16:9
Original display aspect ratio : 16:9
Frame rate mode : Constant
Frame rate : 23.976 fps
Color space : YUV
Chroma subsampling : 4:2:0
Bit depth : 8 bits
Scan type : Progressive
Bits/(Pixel*Frame) : 0.176
Stream size : 2.92 GiB (61%)
Title : WEB-DL 720p
Language : English
Default : Yes
Forced : No
Color primaries : BT.709
Transfer characteristics : BT.709
Matrix coefficients : BT.709
Audio #1
ID : 2
Format : AC-3
Format/Info : Audio Coding 3
Mode extension : CM (complete main)
Format settings, Endianness : Big
Codec ID : A_AC3
Duration : 1h 48mn
Bit rate mode : Constant
Bit rate : 384 Kbps
Channel(s) : 6 channels
Channel positions : Front: L C R, Side: L R, LFE
Sampling rate : 48.0 KHz
Bit depth : 16 bits
Compression mode : Lossy
Stream size : 298 MiB (6%)
Title : DUB (ВидеоCервис) [R5] | AC3 5.1 384Kbps
Language : Russian
Default : Yes
Forced : No
Audio #2
ID : 3
Format : AC-3
Format/Info : Audio Coding 3
Mode extension : CM (complete main)
Format settings, Endianness : Big
Codec ID : A_AC3
Duration : 1h 48mn
Bit rate mode : Constant
Bit rate : 192 Kbps
Channel(s) : 2 channels
Channel positions : Front: L R
Sampling rate : 48.0 KHz
Bit depth : 16 bits
Compression mode : Lossy
Stream size : 149 MiB (3%)
Title : DVO ( ВидеоСервис) [VHS] | AC3 2.0 192Kbps
Language : Russian
Default : No
Forced : No
Audio #3
ID : 4
Format : AC-3
Format/Info : Audio Coding 3
Mode extension : CM (complete main)
Format settings, Endianness : Big
Codec ID : A_AC3
Duration : 1h 48mn
Bit rate mode : Constant
Bit rate : 192 Kbps
Channel(s) : 2 channels
Channel positions : Front: L R
Sampling rate : 48.0 KHz
Bit depth : 16 bits
Compression mode : Lossy
Stream size : 149 MiB (3%)
Title : MVO (ВидеоCервис) [VHS_v.2 & R5] | AC3 2.0 192Kbps
Language : Russian
Default : No
Forced : No
Audio #4
ID : 5
Format : AC-3
Format/Info : Audio Coding 3
Mode extension : CM (complete main)
Format settings, Endianness : Big
Codec ID : A_AC3
Duration : 1h 48mn
Bit rate mode : Constant
Bit rate : 384 Kbps
Channel(s) : 6 channels
Channel positions : Front: L C R, Side: L R, LFE
Sampling rate : 48.0 KHz
Bit depth : 16 bits
Compression mode : Lossy
Stream size : 298 MiB (6%)
Title : MVO | AC3 5.1 384Kbps
Language : Russian
Default : No
Forced : No
Audio #5
ID : 6
Format : AC-3
Format/Info : Audio Coding 3
Mode extension : CM (complete main)
Format settings, Endianness : Big
Codec ID : A_AC3
Duration : 1h 48mn
Bit rate mode : Constant
Bit rate : 192 Kbps
Channel(s) : 2 channels
Channel positions : Front: L R
Sampling rate : 48.0 KHz
Bit depth : 16 bits
Compression mode : Lossy
Stream size : 149 MiB (3%)
Title : MVO (ТВ3) | AC3 2.0 192Kbps
Language : Russian
Default : No
Forced : No
Audio #6
ID : 7
Format : AC-3
Format/Info : Audio Coding 3
Mode extension : CM (complete main)
Format settings, Endianness : Big
Codec ID : A_AC3
Duration : 1h 48mn
Bit rate mode : Constant
Bit rate : 384 Kbps
Channel(s) : 6 channels
Channel positions : Front: L C R, Side: L R, LFE
Sampling rate : 48.0 KHz
Bit depth : 16 bits
Compression mode : Lossy
Stream size : 298 MiB (6%)
Title : AVO (Карцев) | AC3 5.1 384Kbps
Language : Russian
Default : No
Forced : No
Audio #7
ID : 8
Format : AC-3
Format/Info : Audio Coding 3
Mode extension : CM (complete main)
Format settings, Endianness : Big
Codec ID : A_AC3
Duration : 1h 48mn
Bit rate mode : Constant
Bit rate : 192 Kbps
Channel(s) : 2 channels
Channel positions : Front: L R
Sampling rate : 48.0 KHz
Bit depth : 16 bits
Compression mode : Lossy
Stream size : 149 MiB (3%)
Title : AVO (Визгунов) | AC3 2.0 192Kbps
Language : Russian
Default : No
Forced : No
Audio #8
ID : 9
Format : AC-3
Format/Info : Audio Coding 3
Mode extension : CM (complete main)
Format settings, Endianness : Big
Codec ID : A_AC3
Duration : 1h 48mn
Bit rate mode : Constant
Bit rate : 384 Kbps
Channel(s) : 6 channels
Channel positions : Front: L C R, Side: L R, LFE
Sampling rate : 48.0 KHz
Bit depth : 16 bits
Compression mode : Lossy
Stream size : 298 MiB (6%)
Title : ENG (original) | AC3 5.1 384Kbps
Language : English
Default : No
Forced : No
Text #1
ID : 10
Format : UTF-8
Codec ID : S_TEXT/UTF8
Codec ID/Info : UTF-8 Plain Text
Title : RUS [R5]
Language : Russian
Default : No
Forced : No
Text #2
ID : 11
Format : UTF-8
Codec ID : S_TEXT/UTF8
Codec ID/Info : UTF-8 Plain Text
Title : ENG [R5]
Language : English
Default : No
Forced : No
Menu
00:00:00.000 : en:Start
00:01:58.000 : en:Sirius 6b
00:05:54.000 : en:Calvary Attack
00:08:55.000 : en:Retrieval Expedition
00:11:14.000 : en:Col. Hendricksson
00:18:52.000 : en:Crash Site
00:25:56.000 : en:"We Are Betrayed"
00:30:01.000 : en:Peace Mission
00:32:10.000 : en:History Lesson
00:35:58.000 : en:David
00:39:33.000 : en:Campsite
00:41:55.000 : en:An Upgrade
00:45:18.000 : en:Not A Real Boy
00:48:51.000 : en:Down To The Bunker
00:52:00.000 : en:Jessica
00:59:19.000 : en:Into The Tunnels
01:02:11.000 : en:The Command Center
01:04:27.000 : en:Uplink Interrupted
01:08:00.000 : en:Reading The Tags
01:10:07.000 : en:"Can I Come With You?"
01:11:22.000 : en:Wasted For No Reason
01:16:34.000 : en:Becker & The Rookie
01:18:57.000 : en:Type 3
01:23:11.000 : en:Type 2
01:26:33.000 : en:"I Had To Know"
01:30:57.000 : en:New Alamo Site
01:32:19.000 : en:Preparing To Launch
01:39:18.000 : en:Killing Each Other

Скриншоты


_________________
Показать сообщения:    

Текущее время: Сегодня 16:10

Часовой пояс: GMT



Вы не можете начинать темы
Вы не можете отвечать на сообщения
Вы не можете редактировать свои сообщения
Вы не можете удалять свои сообщения
Вы не можете голосовать в опросах
Вы не можете прикреплять файлы к сообщениям
Вы не можете скачивать файлы