Важное объявление!
У Нас Все раздачи мультитрекерные, при нуле пиров в релизах, можете смело вставать на закачку!
Статистика раздачи
Размер:     |    Зарегистрирован:     |    Скачан:     |   
Нет
 
     
 
 
Автор Сообщение

HUNTER

Стаж:
5 лет
Сообщений:
68415

Репутация: 101

[+] [-]
Вне форума [Профиль] [ЛС]

Крейсер / USS Indianapolis: Men of Courage- -Страна: США
Жанр: боевик, военный, драма
Год выпуска: 2016
Производство: «Hannibal Pictures, USS Indianapolis Production»
Продолжительность: 02:04:34
Перевод: Профессиональный (дублированный)
Оригинальная аудиодорожка: нет
Cубтитры: нет-Режиссер: Марио Ван Пиблз / Mario Van Peebles-В ролях:
Николас Кейдж, Том Сайзмор, Томас Джейн, Мэтт Лантер, Вероника Розати,
Коуди Уокер, Брайан Прэсли, Эмили Теннант, Каллард Харрис, Эмили Мари Палмер-Описание:
Лето 1945 года. До конца Второй мировой оставались считанные недели…
Крейсер ВМС США «Индианополис» доставил на американскую военную базу на острове Тиниан боеголовку атомной бомбы.
На обратном рейде корабль был торпедирован японцами и пошел ко дну. «SOS!» капитана Маквэя не был услышан.
И живые позавидовали мертвым: палящее солнце и зубы акул, жажда и галлюцинации, безумие и адские муки отчаяния…-Возраст: 18+-Качество: WEB-DL 1080p
Формат: MKV
Видео кодек: AVC
Аудио кодек: AC3

Видео: AVC, 1920 х 800 (16:9), 25,000 кадр/сек, 4 521 Кбит/сек, 0.118 bit/pixel
Аудио: AC3, 48000 Hz, 384 Kbps, 6 каналов
-

MediaInfo

General
Unique ID : 225338479305843310171145229672588188824 (0xA9869CCC42E73841BC4631DDDE031C98)
Complete name : D:\Раздачи\Крейсер USS Indianapolis Men of Courage WEB-DL (1080p)\Крейсер USS Indianapolis Men of Courage WEB-DL (1080p).mkv
Format : Matroska
Format version : Version 4 / Version 2
File size : 4.27 GiB
Duration : 2h 4mn
Overall bit rate : 4 907 Kbps
Encoded date : UTC 2016-10-12 18:15:58
Writing application : mkvmerge v8.3.0 ('Over the Horizon') 64bit
Writing library : libebml v1.3.1 + libmatroska v1.4.2
Video
ID : 1
Format : AVC
Format/Info : Advanced Video Codec
Format profile : High@L4
Format settings, CABAC : Yes
Format settings, ReFrames : 5 frames
Codec ID : V_MPEG4/ISO/AVC
Duration : 2h 4mn
Bit rate : 4 521 Kbps
Width : 1 920 pixels
Height : 800 pixels
Display aspect ratio : 2.40:1
Frame rate mode : Constant
Frame rate : 25.000 fps
Color space : YUV
Chroma subsampling : 4:2:0
Bit depth : 8 bits
Scan type : Progressive
Bits/(Pixel*Frame) : 0.118
Stream size : 3.93 GiB (92%)
Language : Russian
Default : Yes
Forced : No
Color range : Limited
Color primaries : BT.709
Transfer characteristics : BT.709
Matrix coefficients : BT.709
Audio
ID : 2
Format : AC-3
Format/Info : Audio Coding 3
Mode extension : CM (complete main)
Format settings, Endianness : Big
Codec ID : A_AC3
Duration : 2h 4mn
Bit rate mode : Constant
Bit rate : 384 Kbps
Channel(s) : 6 channels
Channel positions : Front: L C R, Side: L R, LFE
Sampling rate : 48.0 KHz
Frame rate : 31.250 fps (1536 spf)
Compression mode : Lossy
Stream size : 342 MiB (8%)
Language : Russian
Default : Yes
Forced : No
Menu
00:00:00.000 : en:Глава 1
00:06:47.880 : en:Глава 2
00:15:29.120 : en:Глава 3
00:23:52.280 : en:Глава 4
00:28:41.840 : en:Глава 5
00:34:03.840 : en:Глава 6
00:41:05.760 : en:Глава 7
00:51:06.920 : en:Глава 8
00:57:08.280 : en:Глава 9
01:03:45.160 : en:Глава 10
01:10:45.520 : en:Глава 11
01:18:32.200 : en:Глава 12
01:25:52.000 : en:Глава 13
01:32:05.600 : en:Глава 14
01:38:51.760 : en:Глава 15
01:49:20.880 : en:Глава 16
01:53:10.120 : en:Глава 17

Скриншоты

-Раздаю до первых 5-ти скачавших, на раздачи не возвращаюсь...-

_________________
Показать сообщения:    

Текущее время: Сегодня 10:53

Часовой пояс: GMT



Вы не можете начинать темы
Вы не можете отвечать на сообщения
Вы не можете редактировать свои сообщения
Вы не можете удалять свои сообщения
Вы не можете голосовать в опросах
Вы не можете прикреплять файлы к сообщениям
Вы не можете скачивать файлы