Ивановский Торрент трекер
Яндекс.Погода
 

[Цитировать]
HUNTER

Красотки из Сент-Тринианс
The Belles of St. Trinian's-- Страна: Великобритания
Жанр: Комедия
Год выпуска: 1954
Продолжительность: 1:31:09-Перевод: Одноголосый закадровый Oneinchnales
Cубтитры: английские
Оригинальная аудиодорожка: английский-Режиссер: Фрэнк Лондер (Frank Launder)
В ролях:
Аластер Сим (Директриса Миллисента Фриттон
и её брат букмекер Кларенс Фриттон)
,
Джойс Гренфелл (Сержант Руби Гейтс),
Джордж Коул (Гарри-Шнырь),
Гермиона Бадделей (Мисс Драундер),
Бетти Энн Дэйвис (Мисс Уотерс),
Рене Хьюстон (Мисс Бриммер),
Берил Рид (Мисс Уилсон)
Айрин Хэндл (Мисс Гейл)
Джоан Симс (Мисс Дон)
Ллойд Лэмбл (Суперинтендант Кэмп Бёрд)
Майкл Риппер (Альберт Фэнинг)
Сидни Джеймс (Бенни)
и другие-Описание:
Добро пожаловать в школу для юных леди "Сент-Тринианс"! Здесь вас научат хорошим манерам… а также игре на скачках, домашнему "джиноварению" и другим полезным навыкам совершенно нетривиальными методами, так как философия здешнего преподовательского состава.. НИЧЕГО не запрещать своим подопечным!Oneinchnales)-Доп. информация:
Продолжаю цикл классических комедий. Вашему вниманию предлагается первый фильм известного комедийного цикла "Сент-Тринианс" с великолепным Аластером Симом сразу в двух заглавных ролях. Думаю, любители английского юмора не смогут пройти мимо. Смотрим и не забываем оставлять отзывы. На русском языке впервые. Перевод и озвучание мои.

Традиционный перл от Кинопоиска

Приезд дочери султана принцессы Фатимы в известную и престижную английскую «Школу для юных леди» принес больше суматохи, чем обычно. Конь её отца — Арабский Мальчик вскоре должен участвовать в скачках, поэтому Кларенс Фиттон, брат директриссы Миллисент, просит свою дочь докладывать ему об успехах коня. В то же время полиция устраивает сержанта Руби Гейтса в качестве учителя в школу, а Министерство образования отправляет уже третьего по счету инспектора, так как первые два бесследно исчезли.
-
Качество: BDRip
Формат: MKV
Видео кодек: H.264
Аудио кодек: AC3
Видео: 960x720 (1.33:1), 23,976 fps, x264, ~4505 kbps
Аудио 1: 48 kHz, AC-3, 2 ch, CBR 192.00 kbps | (русский VO Oneinchnales)
Аудио 2: 48 kHz, AC-3, 2 ch, CBR 640.00 kbps | (оригинальная английская дорожка)
Формат субтитров: softsub (SRT)

MediaInfo

Общее
Уникальный идентификатор : 215307127026860288015953084161347267397 (0xA1FAA4F207F6D5549E927B3C2D03AB45)
Полное имя : 60.Krasotki.iz.Sent-Trinians.(The.Belles.of.St.Trinian's,1954).BDRip.720p.Dual.AC3_Oneinchnales.mkv
Формат : Matroska
Версия формата : Version 4 / Version 2
Размер файла : 3,40 Гбайт
Продолжительность : 1 ч. 31 м.
Общий поток : 5339 Кбит/сек
Дата кодирования : UTC 2015-02-19 21:32:06
Программа кодирования : mkvmerge v6.8.0 ('Theme for Great Cities') 64bit built on Mar 2 2014 21:34:26
Библиотека кодирования : libebml v1.3.0 + libmatroska v1.4.1
Видео
Идентификатор : 1
Формат : AVC
Формат/Информация : Advanced Video Codec
Профиль формата : High@L4.1
Параметр CABAC формата : Да
Параметр ReFrames формата : 5 кадров
Идентификатор кодека : V_MPEG4/ISO/AVC
Продолжительность : 1 ч. 31 м.
Битрейт : 4505 Кбит/сек
Ширина : 960 пикселей
Высота : 720 пикселей
Соотношение сторон : 4:3
Режим частоты кадров : Постоянный
Частота кадров : 23,976 кадра/сек
Цветовое пространство : YUV
Субдискретизация насыщенности : 4:2:0
Битовая глубина : 8 бит
Тип развёртки : Прогрессивная
Бит/(Пиксели*Кадры) : 0.272
Размер потока : 2,80 Гбайт (82%)
Библиотека кодирования : x264 core 142 r2409 d6b4e63
Настройки программы : cabac=1 / ref=5 / deblock=1:0:0 / analyse=0x3:0x133 / me=umh / subme=8 / psy=1 / psy_rd=1.00:0.00 / mixed_ref=1 / me_range=16 / chroma_me=1 / trellis=1 / 8x8dct=1 / cqm=0 / deadzone=21,11 / fast_pskip=0 / chroma_qp_offset=-2 / threads=12 / lookahead_threads=2 / sliced_threads=0 / nr=0 / decimate=1 / interlaced=0 / bluray_compat=0 / constrained_intra=0 / bframes=3 / b_pyramid=2 / b_adapt=2 / b_bias=0 / direct=3 / weightb=1 / open_gop=0 / weightp=2 / keyint=250 / keyint_min=23 / scenecut=40 / intra_refresh=0 / rc_lookahead=50 / rc=2pass / mbtree=1 / bitrate=4505 / ratetol=1.0 / qcomp=0.60 / qpmin=0 / qpmax=69 / qpstep=4 / cplxblur=20.0 / qblur=0.5 / ip_ratio=1.40 / aq=1:1.00
Язык : English
Default : Да
Forced : Нет
Аудио #1
Идентификатор : 2
Формат : AC-3
Формат/Информация : Audio Coding 3
Расширение режима : CM (complete main)
Параметр Endianness формата : Big
Идентификатор кодека : A_AC3
Продолжительность : 1 ч. 31 м.
Вид битрейта : Постоянный
Битрейт : 192 Кбит/сек
Каналы : 2 канала
Расположение каналов : Front: L R
Частота : 48,0 КГц
Битовая глубина : 16 бит
Метод сжатия : С потерями
Размер потока : 125 Мбайт (4%)
Заголовок : VO (Oneinchnales)
Язык : Russian
Default : Нет
Forced : Нет
Аудио #2
Идентификатор : 3
Формат : AC-3
Формат/Информация : Audio Coding 3
Расширение режима : CM (complete main)
Параметр Endianness формата : Big
Идентификатор кодека : A_AC3
Продолжительность : 1 ч. 31 м.
Вид битрейта : Постоянный
Битрейт : 640 Кбит/сек
Каналы : 2 канала
Расположение каналов : Front: L R
Частота : 48,0 КГц
Битовая глубина : 16 бит
Метод сжатия : С потерями
Размер потока : 417 Мбайт (12%)
Заголовок : Original Eng 2.0
Язык : English
Default : Нет
Forced : Нет
Текст
Идентификатор : 4
Формат : UTF-8
Идентификатор кодека : S_TEXT/UTF8
Идентификатор кодека/Информация : UTF-8 Plain Text
Язык : English
Default : Да
Forced : Нет
Меню
00:00:00.000 : en:00:00:00.000
00:07:22.025 : en:00:07:22.025
00:14:09.974 : en:00:14:09.974
00:20:43.075 : en:00:20:43.075
00:28:49.061 : en:00:28:49.061
00:34:38.535 : en:00:34:38.535
00:40:19.083 : en:00:40:19.083
00:49:29.341 : en:00:49:29.341
00:57:09.384 : en:00:57:09.384
01:05:49.779 : en:01:05:49.779
01:13:30.197 : en:01:13:30.197
01:20:54.224 : en:01:20:54.224
Мои раздачи раритетов Хаммер
Последняя страница (1952)
Четырехсторонний треугольник (1953)
Эксперимент Куотермасса (1955)
Дыхательная трубка (1958)
Вчерашний враг (1959)
Человек, обманувший смерть (1959)
Адский город (1960)
Два лица доктора Джекила (1960)
Тень кошки (1961)
Проклятие оборотня (1961)
Наличные по требованию (1961)
Призрак оперы (1962)
Проклятые (1963)
Поцелуй вампира (1963)
Параноик (1963)
Дьявольский пиратский корабль (1964)
Ночной кошмар (1964)
Ужас Франкенштейна (1970)
Доктор Джекилл и сестра Хайд (1971)
Страх в ночи (1972)
Звёзды "Хаммер": Интервью с Вероникой Карлсон
Мир студии Хаммер (1990) Ночь орла (1962)
Ужасная тайна доктора Хичкока (1962)
Колдовство (1964)
Пляска смерти (1964)
Длинные волосы смерти (1964)
Любовники из могилы (1965)
Череп (1965)
Око дьявола (1966)
Кровавый судья (1970)
И наступит тьма (1970)
Загадка "Плетёного человека" (2001) Продолжаем кричать! (1966)
Бал вампиров (1967) Свистни по ветру (1961)
Фанни (1961)Новая раздача:

Спросите у полицейского (1939)Релиз и качество:
-- Все материалы оригинальные © Ссылка на авторство обязательна
Показать сообщения:    

Текущее время: 19-Окт 11:58

Часовой пояс: UTC - 1


Вы не можете начинать темы
Вы не можете отвечать на сообщения
Вы не можете редактировать свои сообщения
Вы не можете удалять свои сообщения
Вы не можете голосовать в опросах
Вы не можете прикреплять файлы к сообщениям
Вы не можете скачивать файлы

!ВНИМАНИЕ!
Сайт не предоставляет электронные версии произведений, а занимается лишь коллекционированием и каталогизацией ссылок, присылаемых и публикуемых на форуме нашими читателями. Если вы являетесь правообладателем какого-либо представленного материала и не желаете, чтобы ссылка на него находилась в нашем каталоге, свяжитесь с нами, и мы незамедлительно удалим ее. Файлы для обмена на трекере предоставлены пользователями сайта, и администрация не несет ответственности за их содержание. Просьба не заливать файлы, защищенные авторскими правами, а также файлы нелегального содержания!