Важное объявление!
У Нас Все раздачи мультитрекерные, при нуле пиров в релизах, можете смело вставать на закачку!
 
Автор Сообщение

димитри37

Стаж:
4 года 2 месяца
Сообщений:
1236

Репутация: 127

[+] [-]
Вне форума [Профиль] [ЛС]


Красотка. Pretty Woman
Год выпуска: 1990
Страна: США
Жанр: комедия, мелодрама
Продолжительность: 01:59:37
Перевод: Профессиональный (полное дублирование)
Бюджет: $14 000 000
Премьера в мире: 23 марта 1990
Режиссер: Гэрри Маршалл / Garry Marshall
В ролях: Ричард Гир, Ральф Беллами, Джулия Робертс, Джейсон Александр, Лора Сан Джакомо, Алекс Хайд-Вайт, Эми Ясбек, Элинор Донахью, Эктор Элисондо, Джудит Болдуин
Описание: Финансовый магнат Эдвард Льюис, проезжая по ночному городу, останавливается около красивой женщины. Ее зовут Вивьен и она берет только наличными. Наутро он понимает, что не хочет расставаться с ней и предлагает девушке остаться в его номере в отеле еще на некоторое время — за дополнительный гонорар. Вивьен оказывается в море блеска и лжи. Она терпит небрежное отношение к ней ради понравившегося мужчины, который перестал быть для нее просто клиентом.

Качество: BDRip (Blu-ray 1080p )
Формат: MKV
Видео кодек: H.264
Аудио кодек: AC3
Видео: English, 4463 Кбит/сек, 1280*688 (1,860), в 23,976 кадр/сек, AVC
Аудио: Russian, 448 Кбит/сек, 48,0 КГц, 16 бит, 6 канала(ов), AC-3|дубляж
Аудио:English, 320 Кбит/сек, 48,0 КГц, 16 бит, 6 канала(ов), AC-3|оригинал
Субтитры: Russian, VobSubEnglish, VobSub
Источник

Награды:

Награды:
Оскар, 1991 год
Номинации: Лучшая женская роль (Джулия Робертс)
Золотой глобус, 1991 год
Победитель: Лучшая женская роль (Джулия Робертс)
Номинации: Лучший фильм (комедия или мюзикл), Лучшая мужская роль (Ричард Гир), Лучшая мужская роль второго плана (Гектор Элизондо)
Британская академия, 1991 год
Номинации: Лучший фильм, Лучшая женская роль (Джулия Робертс), Лучший оригинальный сценарий, Лучшие костюмы

MI::

Уникальный идентификатор : 228629084161358026544500892578402382286 (0xAC005C24A97DD997A113104DCD0DB1CE)
Полное имя : E:торрентPretty Woman (1990) BDRip (720p).mkv
Формат : Matroska
Размер файла : 4,38 Гбайт
Продолжительность : 1 ч. 59 м.
Общий поток : 5238 Кбит/сек
Дата кодирования : UTC 2011-03-03 17:35:54
Программа кодирования : mkvmerge v4.5.0 ('Speed of Light') built on Feb 1 2011 02:10:32
Библиотека кодирования : libebml v1.2.0 + libmatroska v1.1.0
Видео
Идентификатор : 1
Формат : AVC
Формат/Информация : Advanced Video Codec
Профиль формата : High@L5.0
Параметр CABAC формата : Да
Параметр ReFrames формата : 16 кадры
Идентификатор кодека : V_MPEG4/ISO/AVC
Продолжительность : 1 ч. 59 м.
Битрейт : 4463 Кбит/сек
Ширина : 1280 пикс.
Высота : 688 пикс.
Соотношение сторон : 1,860
Частота кадров : 23,976 кадр/сек
Цветовое пространство : YUV
Подвыборка цветности : 4:2:0
Битовая глубина : 8 бит
Тип развёртки : Прогрессивная
Бит/(Пиксели*Кадры) : 0.211
Размер потока : 3,65 Гбайт (83%)
Библиотека кодирования : x264 core 114 r1913 5fd3dce
Настройки программы : cabac=1 / ref=16 / deblock=1:-3:-3 / analyse=0x3:0x133 / me=umh / subme=7 / psy=1 / psy_rd=1.00:0.15 / mixed_ref=1 / me_range=32 / chroma_me=1 / trellis=2 / 8x8dct=1 / cqm=0 / deadzone=21,11 / fast_pskip=0 / chroma_qp_offset=-3 / threads=6 / sliced_threads=0 / nr=0 / decimate=1 / interlaced=0 / constrained_intra=0 / bframes=6 / b_pyramid=2 / b_adapt=1 / b_bias=0 / direct=1 / weightb=0 / open_gop=0 / weightp=2 / keyint=250 / keyint_min=23 / scenecut=40 / intra_refresh=0 / rc_lookahead=40 / rc=2pass / mbtree=1 / bitrate=4463 / ratetol=1.0 / qcomp=0.80 / qpmin=10 / qpmax=51 / qpstep=4 / cplxblur=20.0 / qblur=0.5 / ip_ratio=1.40 / aq=1:1.00
Язык : English
Аудио #1
Идентификатор : 2
Формат : AC-3
Формат/Информация : Audio Coding 3
Расширение режима : CM (complete main)
Идентификатор кодека : A_AC3
Продолжительность : 1 ч. 59 м.
Вид битрейта : Постоянный
Битрейт : 448 Кбит/сек
Канал(ы) : 6 канала(ов)
Расположение каналов : Front: L C R, Side: L R, LFE
Частота : 48,0 КГц
Битовая глубина : 16 бит
Метод сжатия : С потерями
Размер потока : 383 Мбайт (9%)
Язык : Russian
Аудио #2
Идентификатор : 3
Формат : AC-3
Формат/Информация : Audio Coding 3
Расширение режима : CM (complete main)
Идентификатор кодека : A_AC3
Продолжительность : 1 ч. 59 м.
Вид битрейта : Постоянный
Битрейт : 320 Кбит/сек
Канал(ы) : 6 канала(ов)
Расположение каналов : Front: L C R, Side: L R, LFE
Частота : 48,0 КГц
Битовая глубина : 16 бит
Метод сжатия : С потерями
Размер потока : 274 Мбайт (6%)
Язык : English
Текст #1
Идентификатор : 4
Формат : VobSub
Режим смешивания : zlib
Идентификатор кодека : S_VOBSUB
Идентификатор кодека/Информация : The same subtitle format used on DVDs
Язык : Russian
Текст #2
Идентификатор : 5
Формат : VobSub
Режим смешивания : zlib
Идентификатор кодека : S_VOBSUB
Идентификатор кодека/Информация : The same subtitle format used on DVDs
Язык : English
Меню
00:00:00.000 : en:00:00:00.000
00:09:26.399 : en:00:09:26.399
00:13:39.235 : en:00:13:39.235
00:18:51.130 : en:00:18:51.130
00:34:00.038 : en:00:34:00.038
00:41:51.968 : en:00:41:51.968
00:44:46.684 : en:00:44:46.684
00:49:52.031 : en:00:49:52.031
00:54:50.078 : en:00:54:50.078
01:00:35.757 : en:01:00:35.757
01:08:36.487 : en:01:08:36.487
01:17:20.636 : en:01:17:20.636
01:21:09.323 : en:01:21:09.323
01:29:10.178 : en:01:29:10.178
01:35:29.140 : en:01:35:29.140
01:42:23.637 : en:01:42:23.637
01:48:39.596 : en:01:48:39.596
01:52:34.456 : en:01:52:34.456
01:56:27.189 : en:01:56:27.189

Скриншоты



Показать сообщения:    

Текущее время: Сегодня 22:14

Часовой пояс: GMT



Вы не можете начинать темы
Вы не можете отвечать на сообщения
Вы не можете редактировать свои сообщения
Вы не можете удалять свои сообщения
Вы не можете голосовать в опросах
Вы не можете прикреплять файлы к сообщениям
Вы не можете скачивать файлы