Важное объявление!
У Нас Все раздачи мультитрекерные, при нуле пиров в релизах, можете смело вставать на закачку!
 
Автор Сообщение

димитри37

Стаж:
3 года 10 месяцев
Сообщений:
1237

Репутация: 127

[+] [-]
Вне форума [Профиль] [ЛС]

Красотка
Страна: Россия
Жанр: мелодрама, комедия
Год выпуска: 2012
Продолжительность: 01:30:00
Режиссёр: Дмитрий Петрунь
В ролях: Илья Носков, Анна Старшенбаум, Сергей Комаров, Наталия Антонова, Игорь Ясулович, Роман Мадянов, Ричард Бондарев, Сергей Серов, Ольга Хохлова, Ольга Штыркова, Ангелина Лакатош, Юрий Бондаренко, Юрий Гумиров, Юлия Ковалёва, Анастасия Логинова, Елена Блинникова, Наталья Унгард, Александр Федичкин, Михаил Инчин, Василий Бочкарёв, Леонид Трегуб, Александр Сибирцев, Алексей Белоус, Николай Аверюшкин, Владимир Кебин, Кирилл Мелехов, Станислав Герасимов, Даниил Семченков, Павел Чернявский
Описание: Молодому и успешному предпринимателю Кириллу предстоит важный деловой ужин, который может значительно повлиять на его бизнес и принести хорошую прибыль. Только есть одно условие: на этот ужин он должен пригласить свою невесту, с которой еще никого не познакомил. И, как назло, пара накануне ссорится. Теперь Кириллу срочно нужна замена - и она не заставляет себя ждать. Он знакомится с Лизой, она привлекательна и остроумна. Кирилл решает, что она подходит. Если бы он знал, с кем он связывается...

Качество видео: HDTVRip
Формат видео: AVI
Видео: 720x400 (1.80:1), 25 fps, XviD build 50 ~1969 kbps avg, 0.27 bit/pixel
Аудио: 48 kHz, AC3 Dolby Digital, 2/0 (L,R) ch, ~192.00 kbps avg

MediaInfo

General
Complete name : Krasotka.2012.HDTVRip.Files-x.avi
Format : AVI
Format/Info : Audio Video Interleave
File size : 1.37 GiB
Duration : 1h 30mn
Overall bit rate : 2 172 Kbps
Writing application : VirtualDubMod 1.5.10.3 (build 2550/release)
Writing library : VirtualDubMod build 2550/release
Video
ID : 0
Format : MPEG-4 Visual
Format profile : Advanced Simple@L5
Format settings, BVOP : 1
Format settings, QPel : No
Format settings, GMC : No warppoints
Format settings, Matrix : Default (H.263)
Codec ID : XVID
Codec ID/Hint : XviD
Duration : 1h 30mn
Bit rate : 1 970 Kbps
Width : 720 pixels
Height : 400 pixels
Display aspect ratio : 16:9
Frame rate : 25.000 fps
Color space : YUV
Chroma subsampling : 4:2:0
Bit depth : 8 bits
Scan type : Progressive
Compression mode : Lossy
Bits/(Pixel*Frame) : 0.274
Stream size : 1.24 GiB (91%)
Writing library : XviD 1.2.1 (UTC 2008-12-04)
Audio
ID : 1
Format : AC-3
Format/Info : Audio Coding 3
Mode extension : CM (complete main)
Format settings, Endianness : Big
Codec ID : 2000
Duration : 1h 30mn
Bit rate mode : Constant
Bit rate : 192 Kbps
Channel(s) : 2 channels
Channel positions : Front: L R
Sampling rate : 48.0 KHz
Bit depth : 16 bits
Compression mode : Lossy
Stream size : 124 MiB (9%)
Alignment : Split accross interleaves
Interleave, duration : 40 ms (1.00 video frame)
Interleave, preload duration : 500 ms

Скриншот c названием фильма

Скриншоты

Показать сообщения:    

Текущее время: Сегодня 14:44

Часовой пояс: GMT



Вы не можете начинать темы
Вы не можете отвечать на сообщения
Вы не можете редактировать свои сообщения
Вы не можете удалять свои сообщения
Вы не можете голосовать в опросах
Вы не можете прикреплять файлы к сообщениям
Вы не можете скачивать файлы
Наши партнеры: интернет магазин Ивановского трикотажа textilla.ru