Красный райдинг / Red Riding: In the Year of Our Lord (Ананд Такер / Anand Tucker, Джеймс Марш / James Marsh, Джулиан Джаррольд / Julian Jarrold) [2009, Великобритания, драма, криминал, детектив, HDRip] DVO (НТВ+) :: Ивановский Торрент трекер
Важное объявление!
У Нас Все раздачи мультитрекерные, при нуле пиров в релизах, можете смело вставать на закачку!
Статистика раздачи
Размер:     |    Зарегистрирован:     |    Скачан:     |   
Нет
 
     
 
 
Автор Сообщение

HUNTER

Стаж:
4 года 11 месяцев
Сообщений:
66112

Репутация: 101

[+] [-]
Вне форума [Профиль] [ЛС]

Красный райдинг : Трилогия / Red Riding: In the Year of Our Lord : Trilogy--
Красный райдинг: 1974 / Red Riding: In the Year of Our Lord 1974
Год выпуска: 2009
Страна: Великобритания
Жанр: драма, криминал, детектив
Продолжительность: 01:46:13
Перевод: Профессиональный (двухголосый закадровый) (НТВ+)
Cубтитры: нет
Режиссер: Джулиан Джаррольд / Julian Jarrold
В ролях: Эндрю Гарфилд, Дэвид Моррисси, Джон Хеншоу, Энтони Флэнеган, Уоррен Кларк, Дженнифер Хеннесси, Мэри Джо Рэндл, Рэйчел Джейн Аллен, Рита Мэй, Грэхэм Уолкер
Описание: Корреспондент криминальной хроники газеты «Йоркшир пост» Эдвард Данфорд получает задание написать о расследовании таинственного исчезновения десятилетней девочки. Когда ее находят зверски убитой, Данфорд предпринимает собственное расследование. Чем больше вопросов он задаёт, тем глубже погружается в кошмарные тайны человеческих извращений и пороков, которые простираются до высших эшелонов власти.

Качество видео: HDRip (видеоряд из этой раздачи)
Формат видео: AVI
Видео кодек: XviD
Аудио кодек: AC3
Видео: 704x384 (1.83:1), 23.976 fps, ~1797 kbps avg, 0.28 bit/pixel
Аудио: 48 kHz, 2/0 (L,R) ch, ~192 kbps

MediaInfo

Общее
Полное имя : U:\Red.Riding.Trilogy.2009.HTB+.HDRip\Red.Riding.In.The.Year.Of.Our.Lord.1974.avi
Формат : AVI
Формат/Информация : Audio Video Interleave
Размер файла : 1,48 Гбайт
Продолжительность : 1 ч. 46 м.
Общий поток : 1999 Кбит/сек
Название фильма : Red Riding: In the Year of Our Lord 1974
Программа кодирования : VirtualDubModRus 1.5.10.2 (build 2542/release)
Библиотека кодирования : VirtualDubMod build 2542/release
Правообладатель : rutracker.org (2011)
Видео
Идентификатор : 0
Формат : MPEG-4 Visual
Профиль формата : Advanced Simple@L5
Параметр BVOP формата : 1
Параметр QPel формата : Нет
Параметр GMC формата : Без точки перехода
Параметр матрицы формата : Default (MPEG)
Идентификатор кодека : XVID
Идентификатор кодека/Подсказка : XviD
Продолжительность : 1 ч. 46 м.
Битрейт : 1798 Кбит/сек
Ширина : 704 пикс.
Высота : 384 пикс.
Соотношение сторон : 16:9
Частота кадров : 23,976 кадр/сек
Цветовое пространство : YUV
Подвыборка цветности : 4:2:0
Битовая глубина : 8 бит
Тип развёртки : Прогрессивная
Метод сжатия : С потерями
Бит/(Пиксели*Кадры) : 0.277
Размер потока : 1,33 Гбайт (90%)
Библиотека кодирования : XviD 1.2.0.dev47 (UTC 2006-11-01)
Аудио
Идентификатор : 1
Формат : AC-3
Формат/Информация : Audio Coding 3
Расширение режима : CM (complete main)
Идентификатор кодека : 2000
Продолжительность : 1 ч. 46 м.
Вид битрейта : Постоянный
Битрейт : 192 Кбит/сек
Канал(ы) : 2 канала(ов)
Расположение каналов : Front: L R
Частота : 48,0 КГц
Битовая глубина : 16 бит
Метод сжатия : С потерями
Размер потока : 146 Мбайт (10%)
Выравнивание : Разделение по промежуткам
Продолжительность промежутка : 42 мс. (1,00 видеокадр)
Время предзагрузки промежутка : 500 ms
Заголовок : HTB+

Скриншот c названием фильма

Скриншоты

-
Красный райдинг: 1980 / Red Riding: In the Year of Our Lord 1980
Год выпуска: 2009
Страна: Великобритания
Жанр: драма, криминал, детектив
Продолжительность: 01:37:29
Перевод: Профессиональный (двухголосый закадровый) (НТВ+)
Cубтитры: нет
Режиссер: Джеймс Марш / James Marsh
В ролях: Уоррен Кларк, Пэдди Консидайн, Джеймс Фокс, Дэвид Колдер, Николас Вудесон, Рон Кук, Максин Пик, Тони Питтс, Джим Картер, Дэвид Моррисси
Описание: 1980 год. Вот уже 6 лет в Йоркшире свирепствует маньяк, убивающий молодых женщин. Жители напуганы, в то время как полиция, практически бездействуя, ни на шаг не приблизилась к поимке «Йоркширского Потрошителя». Для проведения тайного расследования действий полиции Йоркшира приглашен помощник начальника полиции Манчестера Питер Хантер. По мере продвижения следствия Хантер все больше убеждается в том, что все это как-то связано с убийствами в клубе «Карачи» в 1974 году…

Качество видео: HDRip (видеоряд из этой раздачи)
Формат видео: AVI
Видео кодек: XviD
Аудио кодек: AC3
Видео: 720x304 (2.37:1), 23.976 fps, ~1755 kbps avg, 0.33 bit/pixel
Аудио: 48 kHz, 2/0 (L,R) ch, ~192 kbps

MediaInfo

Общее
Полное имя : U:\Red.Riding.Trilogy.2009.HTB+.HDRip\Red.Riding.In.The.Year.Of.Our.Lord.1980.avi
Формат : AVI
Формат/Информация : Audio Video Interleave
Размер файла : 1,43 Гбайт
Продолжительность : 1 ч. 37 м.
Общий поток : 2097 Кбит/сек
Название фильма : Red Riding: In the Year of Our Lord 1980
Программа кодирования : VirtualDubModRus 1.5.10.2 (build 2542/release)
Библиотека кодирования : VirtualDubMod build 2542/release
Правообладатель : rutracker.org (2011)
Видео
Идентификатор : 0
Формат : MPEG-4 Visual
Профиль формата : Advanced Simple@L5
Параметр BVOP формата : 1
Параметр QPel формата : Нет
Параметр GMC формата : Без точки перехода
Параметр матрицы формата : Default (MPEG)
Идентификатор кодека : XVID
Идентификатор кодека/Подсказка : XviD
Продолжительность : 1 ч. 37 м.
Битрейт : 1895 Кбит/сек
Ширина : 720 пикс.
Высота : 304 пикс.
Соотношение сторон : 2,35:1
Частота кадров : 23,976 кадр/сек
Цветовое пространство : YUV
Подвыборка цветности : 4:2:0
Битовая глубина : 8 бит
Тип развёртки : Прогрессивная
Метод сжатия : С потерями
Бит/(Пиксели*Кадры) : 0.361
Размер потока : 1,29 Гбайт (90%)
Библиотека кодирования : XviD 1.2.0.dev47 (UTC 2006-11-01)
Аудио
Идентификатор : 1
Формат : AC-3
Формат/Информация : Audio Coding 3
Расширение режима : CM (complete main)
Идентификатор кодека : 2000
Продолжительность : 1 ч. 37 м.
Вид битрейта : Постоянный
Битрейт : 192 Кбит/сек
Канал(ы) : 2 канала(ов)
Расположение каналов : Front: L R
Частота : 48,0 КГц
Битовая глубина : 16 бит
Метод сжатия : С потерями
Размер потока : 134 Мбайт (9%)
Выравнивание : Разделение по промежуткам
Продолжительность промежутка : 42 мс. (1,00 видеокадр)
Время предзагрузки промежутка : 500 ms
Заголовок : HTB+

Скриншот c названием фильма

Скриншоты

-
Красный райдинг: 1983 / Red Riding: In the Year of Our Lord 1983
Год выпуска: 2009
Страна: Великобритания
Жанр: драма, криминал, детектив
Продолжительность: 01:44:41
Перевод: Профессиональный (двухголосый закадровый) (НТВ+)
Cубтитры: нет
Режиссер: Ананд Такер / Anand Tucker
В ролях: Дэвид Моррисси, Lisa Howard, Крис Уокер, Шон Дули, Джим Картер, Уоррен Кларк, Шон Бин, Шон Харрис, Стивен Робертсон, Тони Муни
Описание: Таинственный маньяк, похищавший и убивавший детей в Йоркшире, вновь дает о себе знать, в то время как коррумпированные полицейские, убежденные в своей безнаказанности, арестовывают, пытают и убивают ни в чем не повинных людей.

Качество видео: HDRip (видеоряд из этой раздачи)
Формат видео: AVI
Видео кодек: XviD
Аудио кодек: AC3
Видео: 720x304 (2.37:1), 23.976 fps, ~1755 kbps avg, 0.33 bit/pixel
Аудио: 48 kHz, 2/0 (L,R) ch, ~192 kbps

MediaInfo

Общее
Полное имя : U:\Red.Riding.Trilogy.2009.HTB+.HDRip\Red.Riding.In.The.Year.Of.Our.Lord.1983.avi
Формат : AVI
Формат/Информация : Audio Video Interleave
Размер файла : 1,43 Гбайт
Продолжительность : 1 ч. 44 м.
Общий поток : 1957 Кбит/сек
Название фильма : Red Riding: In the Year of Our Lord 1983
Программа кодирования : VirtualDubModRus 1.5.10.2 (build 2542/release)
Библиотека кодирования : VirtualDubMod build 2542/release
Правообладатель : rutracker.org (2011)
Видео
Идентификатор : 0
Формат : MPEG-4 Visual
Профиль формата : Advanced Simple@L5
Параметр BVOP формата : 1
Параметр QPel формата : Нет
Параметр GMC формата : Без точки перехода
Параметр матрицы формата : Default (MPEG)
Идентификатор кодека : XVID
Идентификатор кодека/Подсказка : XviD
Продолжительность : 1 ч. 44 м.
Битрейт : 1755 Кбит/сек
Ширина : 720 пикс.
Высота : 304 пикс.
Соотношение сторон : 2,35:1
Частота кадров : 23,976 кадр/сек
Цветовое пространство : YUV
Подвыборка цветности : 4:2:0
Битовая глубина : 8 бит
Тип развёртки : Прогрессивная
Метод сжатия : С потерями
Бит/(Пиксели*Кадры) : 0.334
Размер потока : 1,28 Гбайт (90%)
Библиотека кодирования : XviD 1.2.0.dev47 (UTC 2006-11-01)
Аудио
Идентификатор : 1
Формат : AC-3
Формат/Информация : Audio Coding 3
Расширение режима : CM (complete main)
Идентификатор кодека : 2000
Продолжительность : 1 ч. 44 м.
Вид битрейта : Постоянный
Битрейт : 192 Кбит/сек
Канал(ы) : 2 канала(ов)
Расположение каналов : Front: L R
Частота : 48,0 КГц
Битовая глубина : 16 бит
Метод сжатия : С потерями
Размер потока : 144 Мбайт (10%)
Выравнивание : Разделение по промежуткам
Продолжительность промежутка : 42 мс. (1,00 видеокадр)
Время предзагрузки промежутка : 500 ms
Заголовок : HTB+

Скриншот c названием фильма

Скриншоты

-Доп. информация:
Видео взято из релиза TekoRon. Звуковые дорожки предоставил Diablo. Обоим большое спасибо

_________________
Показать сообщения:    

Текущее время: Сегодня 19:29

Часовой пояс: GMT



Вы не можете начинать темы
Вы не можете отвечать на сообщения
Вы не можете редактировать свои сообщения
Вы не можете удалять свои сообщения
Вы не можете голосовать в опросах
Вы не можете прикреплять файлы к сообщениям
Вы не можете скачивать файлы