Важное объявление!
У Нас Все раздачи мультитрекерные, при нуле пиров в релизах, можете смело вставать на закачку!
 
Автор Сообщение

HUNTER

Стаж:
4 года 8 месяцев
Сообщений:
62068

Репутация: 101

[+] [-]
Вне форума [Профиль] [ЛС]

Красный космос: Секретные космические программы русских
Red Space: The Secret Russian Space Program

Дата/Год выпуска: 1999
Страна: Россия / США
Жанр: Документальный
Продолжительность: 4 серии по 48 минут
Перевод: Профессиональный (одноголосый)
Русские субтитры: нет
Оригинальная аудиодорожка: нет
Режиссер: Гари Вортман / Gary Wortman
Описание:
Космическая гонка между СССР и США, все ошибки и успехи, скрытые тайны, множество ранее засекреченных снимков и видео. Фильм снят при поддержке РФ и NASA. Основано на сериале "Красный космос", производства "ВидеоКосмос", Россия.
Список серий:
1. «Мифы и недоразумения» - Myth and Misconception
2. «Нерассказанные истории» - Untold Stories
3. «Жизнь и смерть» - Life and Death
4. «Секретный город» - Secret Space
Сэмплы: [1] [2] [3] [4]
Серии 1 и 4
Качество: SatRip
Формат: AVI
Видео: 720x544, 25 fps, 2024/1808 kbps (серии 1 и 4 соответственно), Xvid
Аудио: MP3, 48000Hz, stereo, 128 kbps
Серии 2 и 3
Качество: DVDRip
Формат: AVI
Видео: 720x536, 23.976 fps, 1345/1385 kbps (серии 2 и 3 соответственно), Xvid
Аудио: Dolby AC3, 48000Hz, mono, 96 kbps

Описание по сериям

1. Мифы и недоразумения
В 1957 году западный мир наслаждался «золотым» веком процветания и достатка. Гордая и самоуверенная Америка считала себя маяком морали и прогресса. США находились на передовых позициях в области технологий. В то же время у Советского Союза было множество проблем. Разве Советы в такой ситуации могли завоевать мир? Но 4 октября уверенность американцев сильно пошатнулась. Шар диаметром в 60 сантиметров был запущен на земную орбиту. Это был «Спутник»… Сигнал, который он послал на Землю, прозвучал для Америки как гром среди ясного неба. Началась космическая гонка. Это фильм о секретных проектах СССР, о победах в космосе и неудачах.
2. Нерассказанные истории
В июне 1997 года столкновение между космической станцией "Мир" и грузовым кораблём "Прогресс" закончилось декомпрессией Российской космической станции. Бедствие было быстро предотвращено только благодаря быстрым и слаженным действиям команды космической станции "Мир". Счастливое окончание истории и наличие на борту американского астронавта - возможно единственная причина, по которой остальной мир узнал об этом инциденте... Во времена "холодной войны" Советский Союз и США соревновались в разработке самой совершенной программы освоения космоса. Разрешённые недавно к публикации документы времён бывшего СССР подтверждают, что при этом гибли люди и совершались серьёзные ошибки, о чём раньше никто и не знал. Умалчивание этих ошибок советской космической программы приводило к тому, что американская космическая программа прошла через схожие ошибки, с ещё большим количеством жертв.
3. Жизнь и смерть
Космическая гонка между СССР и США, все ошибки и успехи, скрытые тайны, множество ранее засекреченных снимков и видео.
4. Секретный город
Сколько вы знаете знаменитых космонавтов СССР - Ю. Гагарин, А. Леонов, Г. Гречко, В. Терешкова? А их намного больше, сколько их умерло при старте и сколько в космосе неизвестно и по сей день, но вы можете увидеть рассекреченные кадры из истории космонавтики XIX-XX века, космическая болезнь, вакуум, ужасные перегрузки ... и самое ужасное - смерть.

Сравнение скриншотов

Сравнение с http://rutracker.org/forum/viewtopic.php?t=3514899 (к тому же имеющей рассинхрон)
http://screenshotcomparison.com/comparison/103261
Сравнение с http://rutracker.org/forum/viewtopic.php?t=392481
http://screenshotcomparison.com/comparison/103262

MediaInfo

MediaInfo 1. Myth and Misconception
GeneralComplete name : M:\1999 - The Secret Russian Space Program\1. Myth and Misconception.aviFormat : AVIFormat/Info : Audio Video InterleaveFile size : 743 MiBDuration : 48mn 7sOverall bit rate : 2 160 KbpsWriting application : VirtualDubMod 1.5.10.2 (build 2542/release)Writing library : VirtualDubMod build 2542/release
VideoID : 0Format : MPEG-4 VisualFormat profile : Advanced Simple@L5Format settings, BVOP : 1Format settings, QPel : NoFormat settings, GMC : No warppointsFormat settings, Matrix : CustomCodec ID : XVIDCodec ID/Hint : XviDDuration : 48mn 7sBit rate : 2 024 KbpsWidth : 720 pixelsHeight : 544 pixelsDisplay aspect ratio : 4:3Frame rate : 25.000 fpsColor space : YUVChroma subsampling : 4:2:0Bit depth : 8 bitsScan type : ProgressiveCompression mode : LossyBits/(Pixel*Frame) : 0.207Stream size : 697 MiB (94%)Writing library : XviD 1.1.0 (UTC 2005-11-22)
AudioID : 1Format : MPEG AudioFormat version : Version 1Format profile : Layer 3Mode : Joint stereoMode extension : MS StereoCodec ID : 55Codec ID/Hint : MP3Duration : 48mn 7sBit rate mode : ConstantBit rate : 128 KbpsChannel(s) : 2 channelsSampling rate : 48.0 KHzCompression mode : LossyStream size : 44.1 MiB (6%)Alignment : Aligned on interleavesInterleave, duration : 80 ms (2.00 video frames)Interleave, preload duration : 504 msWriting library : LAME3.98rEncoding settings : -m j -V 4 -q 2 -lowpass 17 -b 128Language : Russian

MediaInfo 2. Untold Stories

GeneralComplete name : M:\1999 - The Secret Russian Space Program\2. Untold Stories.aviFormat : AVIFormat/Info : Audio Video InterleaveFile size : 500 MiBDuration : 48mn 12sOverall bit rate : 1 451 KbpsWriting application : VirtualDubMod 1.5.10.3 | www.virtualdub-fr.org || (build 2550/release)Writing library : VirtualDubMod build 2550/release
VideoID : 0Format : MPEG-4 VisualFormat profile : Advanced Simple@L5Format settings, BVOP : 1Format settings, QPel : NoFormat settings, GMC : No warppointsFormat settings, Matrix : Default (H.263)Codec ID : XVIDCodec ID/Hint : XviDDuration : 48mn 12sBit rate : 1 345 KbpsWidth : 720 pixelsHeight : 536 pixelsDisplay aspect ratio : 4:3Frame rate : 23.976 fpsColor space : YUVChroma subsampling : 4:2:0Bit depth : 8 bitsScan type : ProgressiveCompression mode : LossyBits/(Pixel*Frame) : 0.145Stream size : 464 MiB (93%)Writing library : XviD 1.2.1 (UTC 2008-12-04)
AudioID : 1Format : AC-3Format/Info : Audio Coding 3Mode extension : CM (complete main)Format settings, Endianness : BigCodec ID : 2000Duration : 48mn 12sBit rate mode : ConstantBit rate : 96.0 KbpsChannel(s) : 1 channelChannel positions : Front: CSampling rate : 48.0 KHzBit depth : 16 bitsCompression mode : LossyStream size : 33.1 MiB (7%)Alignment : Split accross interleavesInterleave, duration : 42 ms (1.00 video frame)Interleave, preload duration : 500 ms

MediaInfo 3. Life and Death

GeneralComplete name : M:\1999 - The Secret Russian Space Program\3. Life and Death.aviFormat : AVIFormat/Info : Audio Video InterleaveFile size : 501 MiBDuration : 48mn 0sOverall bit rate : 1 458 KbpsWriting application : VirtualDubMod 1.5.10.3 | www.virtualdub-fr.org || (build 2550/release)Writing library : VirtualDubMod build 2550/release
VideoID : 0Format : MPEG-4 VisualFormat profile : Advanced Simple@L5Format settings, BVOP : 1Format settings, QPel : NoFormat settings, GMC : No warppointsFormat settings, Matrix : Default (H.263)Codec ID : XVIDCodec ID/Hint : XviDDuration : 48mn 0sBit rate : 1 385 KbpsWidth : 720 pixelsHeight : 536 pixelsDisplay aspect ratio : 4:3Frame rate : 23.976 fpsColor space : YUVChroma subsampling : 4:2:0Bit depth : 8 bitsScan type : ProgressiveCompression mode : LossyBits/(Pixel*Frame) : 0.150Stream size : 476 MiB (95%)Writing library : XviD 1.2.1 (UTC 2008-12-04)
AudioID : 1Format : MPEG AudioFormat version : Version 1Format profile : Layer 3Codec ID : 55Codec ID/Hint : MP3Duration : 48mn 0sBit rate mode : ConstantBit rate : 64.0 KbpsChannel(s) : 1 channelSampling rate : 48.0 KHzCompression mode : LossyStream size : 22.0 MiB (4%)Alignment : Aligned on interleavesInterleave, duration : 42 ms (1.00 video frame)Interleave, preload duration : 504 ms

MediaInfo 4. Secret Space

GeneralComplete name : M:\1999 - The Secret Russian Space Program\4. Secret Space.aviFormat : AVIFormat/Info : Audio Video InterleaveFile size : 670 MiBDuration : 48mn 13sOverall bit rate : 1 943 KbpsWriting application : VirtualDubMod 1.5.10.2 (build 2542/release)Writing library : VirtualDubMod build 2542/release
VideoID : 0Format : MPEG-4 VisualFormat profile : Advanced Simple@L5Format settings, BVOP : 1Format settings, QPel : NoFormat settings, GMC : No warppointsFormat settings, Matrix : CustomCodec ID : XVIDCodec ID/Hint : XviDDuration : 48mn 13sBit rate : 1 808 KbpsWidth : 720 pixelsHeight : 544 pixelsDisplay aspect ratio : 4:3Frame rate : 25.000 fpsColor space : YUVChroma subsampling : 4:2:0Bit depth : 8 bitsScan type : ProgressiveCompression mode : LossyBits/(Pixel*Frame) : 0.185Stream size : 624 MiB (93%)Writing library : XviD 1.1.0 (UTC 2005-11-22)
AudioID : 1Format : MPEG AudioFormat version : Version 1Format profile : Layer 3Mode : Joint stereoMode extension : MS StereoCodec ID : 55Codec ID/Hint : MP3Duration : 48mn 13sBit rate mode : ConstantBit rate : 128 KbpsChannel(s) : 2 channelsSampling rate : 48.0 KHzCompression mode : LossyStream size : 44.2 MiB (7%)Alignment : Aligned on interleavesInterleave, duration : 80 ms (2.00 video frames)Interleave, preload duration : 504 msWriting library : LAME3.98.2ЄЄЄЄЄЄЄЄЄЄLanguage : Russian

Скриншоты

Серия 1

Серия 2

Серия 3

Серия 4

_________________
Показать сообщения:    

Текущее время: Сегодня 11:08

Часовой пояс: GMT



Вы не можете начинать темы
Вы не можете отвечать на сообщения
Вы не можете редактировать свои сообщения
Вы не можете удалять свои сообщения
Вы не можете голосовать в опросах
Вы не можете прикреплять файлы к сообщениям
Вы не можете скачивать файлы
Наши партнеры: интернет магазин Ивановского трикотажа textilla.ru