Ивановский Торрент трекер
Яндекс.Погода
 

[Цитировать]
димитри37

Красный как небо / Rosso come il cielo / Red Like the Sky
Страна: Италия
Жанр: Драма
Год выпуска: 2006
Продолжительность: 01:37:20
Перевод: Одноголосый закадровый
Cубтитры: русские
Оригинальная аудиодорожка: итальянский
Режиссер: Кристиано Бортоне / Cristiano Bortone
В ролях: Люка Каприотти / Luca Capriotti, Симона Коломбари / Simone Colombari, Simone Gullо Мишель Иорио / Michele Iorio, Патриция Ла Фонте / Patrizia La Fonte.
Описание: Фильм основан на реальной истории Мирко Менкаччи - одного из самых одаренных итальянских звукорежиссеров, работающих сегодня, который ослеп в детстве в результате несчастного случая. Маленькая деревня в Тоскане, 1971 год. Мирко - умный, живой 10-летний мальчик, помешанный на кино - особенно на вестернах. Его отец, неисправимый идеалист, - водитель грузовика. Однажды Мирко играет со старой винтовкой, оружие случайно выстреливает, мальчик ранен в голову. Он выживает, но теряет зрение. В те времена по итальянским законам слепые считались безнадежными инвалидами и таким детям не разрешалось посещать обычную школу. Поэтому родители вынуждены поместить сына в специальную школу для слепых: Институт Давида Кьоссоне в Генуе. Мирко озлобляется и решает изменить сложившуюся ситуацию. Он находит старый магнитофон и несколько использованных бобин. Экспериментируя, он обнаруживает, что, разрезая и склеивая магнитофонную ленту, может создавать небольшие истории из одних только звуков, и совершенно новый мир открывается для него. Его увлечение всячески запрещается религиозной администрацией школы-интерната, взрослые убеждены, что слепой мальчик нетрудоспособен и ему не на что надеяться.
Но Мирко не сдается. Он продолжает бороться всеми возможными способами и постепенно вовлекает в свою борьбу одноклассников, заставляя их тоже мечтать и раскрывать свои способности. Однажды вечером с помощью единственного зрячего ребенка - дочери привратника, с которой Мирко дружит, он убеждает приятелей сбежать из школы и пойти в кино. Это событие воодушевляет ребят. Но его последствия оказываются совсем не радужными. Мирко исключают из школы. Тем временем в Италии ширится общественное движение. 70-е годы - это пора политических взрывов и протестов, нацеленных на то, чтобы изменить общество. На улицы выходят студенты. Во время одного из своих ранних приключений Мирко знакомится с Этторе, слепым студентом университета, увлеченным политикой. Узнав, что Мирко исключили, Этторе призывает весь город выразить протест против такого решения. Студенты и рабочие выступают на площади, угрожая закрыть доменную печь, если Мирко не вернут назад. Директора института привлекают к ответственности. Мирко возвращают в школу и разрешают ему и его товарищам сдать экзамены в конце года по-новому. Вместо того, чтобы рассказывать обычные религиозные стишки, дети показывают "звуковые сказки" для своих экзаменаторов и родителей.

Качество видео: DVDRip
Формат видео: AVI
Видео: 640x340 (1.88:1), 25 fps, DivX Codec 6.4 ~832 kbps avg, 0.15 bit/pixel
Аудио 1: 48 kHz, MPEG Layer 3, 2 ch, ~192.00 kbps avg
Аудио 2: 44.100 kHz, MPEG Layer 3, 2 ch, ~160.00 kbps avg
Формат субтитров: softsub (SRT)
Доп. информация о субтитрах: Русские внешние (scouttravel)

MediaInfo

Общее
Полное имя : D:\Мои видеозаписи\Красный как небо\Красный как небо.avi
Формат : AVI
Формат/Информация : Audio Video Interleave
Размер файла : 836 Мбайт
Продолжительность : 1 ч. 37 м.
Общий поток : 1200 Кбит/сек
Программа кодирования : VirtualDubModRus 1.5.10.2 (build 2542/release)
Библиотека кодирования : VirtualDubMod build 2542/release
Видео
Идентификатор : 0
Формат : MPEG-4 Visual
Параметр BVOP формата : Да
Параметр QPel формата : Нет
Параметр GMC формата : Без точки перехода
Параметр матрицы формата : Default (H.263)
Идентификатор кодека : DX50
Идентификатор кодека/Подсказка : DivX 5
Продолжительность : 1 ч. 37 м.
Битрейт : 834 Кбит/сек
Ширина : 640 пикселей
Высота : 340 пикселей
Соотношение сторон : 1,882
Частота кадров : 25,000 кадров/сек
Цветовое пространство : YUV
Субдискретизация насыщенности : 4:2:0
Битовая глубина : 8 бит
Тип развёртки : Прогрессивная
Метод сжатия : С потерями
Бит/(Пиксели*Кадры) : 0.153
Размер потока : 580 Мбайт (69%)
Библиотека кодирования : DivX 6.4.0 (UTC 2006-10-03)
Аудио #1
Идентификатор : 1
Формат : MPEG Audio
Версия формата : Version 1
Профиль формата : Layer 3
Режим : Joint stereo
Расширение режима : MS Stereo
Идентификатор кодека : 55
Идентификатор кодека/Подсказка : MP3
Продолжительность : 1 ч. 37 м.
Вид битрейта : Постоянный
Битрейт : 192 Кбит/сек
Каналы : 2 канала
Частота : 48,0 КГц
Метод сжатия : С потерями
Размер потока : 134 Мбайт (16%)
Выравнивание : Соединение по промежуткам
Продолжительность промежутка : 40 мс. (1,00 видеокадр)
Время предзагрузки промежутка : 504 мс.
Библиотека кодирования : LAME3.98
Аудио #2
Идентификатор : 2
Формат : MPEG Audio
Версия формата : Version 1
Профиль формата : Layer 3
Идентификатор кодека : 55
Идентификатор кодека/Подсказка : MP3
Продолжительность : 1 ч. 37 м.
Вид битрейта : Постоянный
Битрейт : 160 Кбит/сек
Каналы : 2 канала
Частота : 44,1 КГц
Метод сжатия : С потерями
Задержка видео : 26 мс.
Размер потока : 111 Мбайт (13%)
Выравнивание : Разделение по промежуткам
Продолжительность промежутка : 40 мс. (1,00 видеокадр)
Время предзагрузки промежутка : 500 мс.

Скриншоты

-


Показать сообщения:    

Текущее время: 17-Дек 10:12

Часовой пояс: UTC ± 0


Вы не можете начинать темы
Вы не можете отвечать на сообщения
Вы не можете редактировать свои сообщения
Вы не можете удалять свои сообщения
Вы не можете голосовать в опросах
Вы не можете прикреплять файлы к сообщениям
Вы не можете скачивать файлы

!ВНИМАНИЕ!
Сайт не предоставляет электронные версии произведений, а занимается лишь коллекционированием и каталогизацией ссылок, присылаемых и публикуемых на форуме нашими читателями. Если вы являетесь правообладателем какого-либо представленного материала и не желаете, чтобы ссылка на него находилась в нашем каталоге, свяжитесь с нами, и мы незамедлительно удалим ее. Файлы для обмена на трекере предоставлены пользователями сайта, и администрация не несет ответственности за их содержание. Просьба не заливать файлы, защищенные авторскими правами, а также файлы нелегального содержания!