Ивановский Торрент трекер
Яндекс.Погода
 

[Цитировать]
HUNTER

Красная планета | Red Planet- Страна: США, Австралия
Жанр: фантастика, боевик, триллер
Год выпуска: 2000
Продолжительность: 01:46:29-Перевод: Профессиональный (дублированный) + профессиональный (многоголосый закадровый) + авторский (одноголосый закадровый)
Оригинальная аудиодорожка: английский
Cубтитры: английские, русские-Режиссер: Энтони Хоффман / Antony Hoffman-В ролях: Вэл Килмер, Кэрри-Энн Мосс, Бенджамин Брэтт, Том Сайзмор, Саймон Бейкер, Теренс Стэмп, Джессика Б. Мортон, Кэролайн Босси, Боб Нилл, Нил Росс-Описание: В 21 веке Земля вымирает, и жить на ней становится все труднее. Ученые надеются основать колонию на Марсе. Команда из шести астронавтов отправляется на планету, чтобы осмотреть планету с целью ее пригодности для жизни.
Однако после полугодового полета к цели при самой посадке, возникают проблемы. Теперь перед астронавтами стоит проблема — как улететь с этой планеты.-Тип релиза: BDRip 1080p (CHD)
Контейнер: MKV-Видео: MPEG-4 AVC Video, NTSC, 1920x800, VBR, 2.40:1, ~9135 kbps, 23.976 fps
Аудио #1: Russian, Audio Coding 3, 48 kHz, DD 5.1 ch, CBR 384 kbps | дубляж, лицензия R5
Аудио #2: Russian, Audio Coding 3, 48 kHz, DD 2.0 ch, CBR 192 kbps | многоголосый закадровый, НТВ
Аудио #3: Russian, Digital Theater Systems, 5.1 ch, 48 kHz, 1510 kbps | одноголосый закадровый, Живов
Аудио #4: English, Digital Theater Systems, 5.1 ch, 48 kHz, 1510 kbps | оригинал-Формат субтитров: softsub (SRT)-

Сэмпл

Скачать

Доп. информация

Звук и субтитры из раздачи team_6strun

MediaInfo

General
Unique ID : 230890350205684910392956319742036157630 (0xADB3DD2AB889860980CBEB4A35A224BE)
Complete name : Red.Planet.2000.BDRip.1080p.mkv
Format : Matroska
Format version : Version 2
File size : 9.47 GiB
Duration : 1h 46mn
Overall bit rate : 12.7 Mbps
Encoded date : UTC 2011-08-05 23:33:38
Writing application : mkvmerge v4.8.0 ('I Got The...') сборка от May 24 2011 03:12:58
Writing library : libebml v1.2.0 + libmatroska v1.1.0
Video
ID : 1
Format : AVC
Format/Info : Advanced Video Codec
Format profile : High@L4.1
Format settings, CABAC : Yes
Format settings, ReFrames : 5 frames
Codec ID : V_MPEG4/ISO/AVC
Duration : 1h 46mn
Bit rate : 9 135 Kbps
Width : 1 920 pixels
Height : 800 pixels
Display aspect ratio : 2.40:1
Frame rate : 23.976 fps
Color space : YUV
Chroma subsampling : 4:2:0
Bit depth : 8 bits
Scan type : Progressive
Bits/(Pixel*Frame) : 0.248
Stream size : 6.61 GiB (70%)
Title : Red Planet
Writing library : x264 core 114 r1924 08d04a4
Encoding settings : cabac=1 / ref=5 / deblock=1:-3:-3 / analyse=0x3:0x113 / me=umh / subme=10 / psy=1 / psy_rd=1.00:0.05 / mixed_ref=1 / me_range=32 / chroma_me=1 / trellis=2 / 8x8dct=1 / cqm=2 / deadzone=21,11 / fast_pskip=0 / chroma_qp_offset=-2 / threads=8 / sliced_threads=0 / nr=0 / decimate=1 / interlaced=0 / constrained_intra=0 / bframes=6 / b_pyramid=2 / b_adapt=2 / b_bias=0 / direct=3 / weightb=1 / open_gop=0 / weightp=2 / keyint=250 / keyint_min=23 / scenecut=40 / intra_refresh=0 / rc_lookahead=50 / rc=2pass / mbtree=1 / bitrate=9135 / ratetol=1.0 / qcomp=0.70 / qpmin=1 / qpmax=63 / qpstep=4 / cplxblur=20.0 / qblur=0.5 / vbv_maxrate=40000 / vbv_bufsize=40000 / nal_hrd=none / ip_ratio=1.40 / aq=2:0.80
Language : English
Audio #1
ID : 2
Format : AC-3
Format/Info : Audio Coding 3
Mode extension : CM (complete main)
Codec ID : A_AC3
Duration : 1h 46mn
Bit rate mode : Constant
Bit rate : 384 Kbps
Channel(s) : 6 channels
Channel positions : Front: L C R, Side: L R, LFE
Sampling rate : 48.0 KHz
Bit depth : 16 bits
Compression mode : Lossy
Stream size : 293 MiB (3%)
Title : Dub
Language : Russian
Audio #2
ID : 3
Format : AC-3
Format/Info : Audio Coding 3
Mode extension : CM (complete main)
Codec ID : A_AC3
Duration : 1h 46mn
Bit rate mode : Constant
Bit rate : 192 Kbps
Channel(s) : 2 channels
Channel positions : Front: L R
Sampling rate : 48.0 KHz
Bit depth : 16 bits
Compression mode : Lossy
Stream size : 146 MiB (2%)
Title : MVO (НТВ)
Language : Russian
Audio #3
ID : 4
Format : DTS
Format/Info : Digital Theater Systems
Codec ID : A_DTS
Duration : 1h 46mn
Bit rate mode : Constant
Bit rate : 1 510 Kbps
Channel(s) : 6 channels
Channel positions : Front: L C R, Side: L R, LFE
Sampling rate : 48.0 KHz
Bit depth : 24 bits
Compression mode : Lossy
Delay relative to video : 11ms
Stream size : 1.12 GiB (12%)
Title : AVO (Живов)
Language : Russian
Audio #4
ID : 5
Format : DTS
Format/Info : Digital Theater Systems
Codec ID : A_DTS
Duration : 1h 46mn
Bit rate mode : Constant
Bit rate : 1 510 Kbps
Channel(s) : 6 channels
Channel positions : Front: L C R, Side: L R, LFE
Sampling rate : 48.0 KHz
Bit depth : 24 bits
Compression mode : Lossy
Stream size : 1.12 GiB (12%)
Title : Original
Language : English
Text #1
ID : 6
Format : UTF-8
Codec ID : S_TEXT/UTF8
Codec ID/Info : UTF-8 Plain Text
Language : Russian
Text #2
ID : 7
Format : UTF-8
Codec ID : S_TEXT/UTF8
Codec ID/Info : UTF-8 Plain Text
Language : English
Menu
00:00:00.000 : en:00:00:00.000
00:03:37.843 : en:00:03:37.843
00:06:21.423 : en:00:06:21.423
00:08:14.119 : en:00:08:14.119
00:10:42.100 : en:00:10:42.100
00:14:51.891 : en:00:14:51.891
00:18:35.531 : en:00:18:35.531
00:23:05.134 : en:00:23:05.134
00:26:15.616 : en:00:26:15.616
00:27:44.663 : en:00:27:44.663
00:31:12.579 : en:00:31:12.579
00:35:11.818 : en:00:35:11.818
00:39:45.633 : en:00:39:45.633
00:44:43.014 : en:00:44:43.014
00:49:30.926 : en:00:49:30.926
00:51:53.319 : en:00:51:53.319
00:55:38.377 : en:00:55:38.377
00:58:19.454 : en:00:58:19.454
01:02:37.337 : en:01:02:37.337
01:06:52.175 : en:01:06:52.175
01:08:39.657 : en:01:08:39.657
01:11:26.240 : en:01:11:26.240
01:13:33.576 : en:01:13:33.576
01:16:01.056 : en:01:16:01.056
01:19:40.025 : en:01:19:40.025
01:23:35.260 : en:01:23:35.260
01:27:26.992 : en:01:27:26.992
01:30:04.649 : en:01:30:04.649
01:34:50.977 : en:01:34:50.977
01:40:46.290 : en:01:40:46.290
01:42:18.716 : en:01:42:18.716

Скриншоты

-Источник:


Показать сообщения:    

Текущее время: 16-Дек 03:41

Часовой пояс: UTC ± 0


Вы не можете начинать темы
Вы не можете отвечать на сообщения
Вы не можете редактировать свои сообщения
Вы не можете удалять свои сообщения
Вы не можете голосовать в опросах
Вы не можете прикреплять файлы к сообщениям
Вы не можете скачивать файлы

!ВНИМАНИЕ!
Сайт не предоставляет электронные версии произведений, а занимается лишь коллекционированием и каталогизацией ссылок, присылаемых и публикуемых на форуме нашими читателями. Если вы являетесь правообладателем какого-либо представленного материала и не желаете, чтобы ссылка на него находилась в нашем каталоге, свяжитесь с нами, и мы незамедлительно удалим ее. Файлы для обмена на трекере предоставлены пользователями сайта, и администрация не несет ответственности за их содержание. Просьба не заливать файлы, защищенные авторскими правами, а также файлы нелегального содержания!