Красная вдова / Red Widow (Билл Джирхарт, Терри МакДонаф, Марк Пеллингтон) (Сезон: 1 / Серии: 1-8 из 8) [2013, криминал, драма, WEB-DL 720p] MVO (Fox) :: Ивановский Торрент трекер
Важное объявление!
У Нас Все раздачи мультитрекерные, при нуле пиров в релизах, можете смело вставать на закачку!
Статистика раздачи
Размер:     |    Зарегистрирован:     |    Скачан:     |   
Нет
 
     
 
 
Автор Сообщение

HUNTER

Стаж:
4 года 11 месяцев
Сообщений:
66116

Репутация: 101

[+] [-]
Вне форума [Профиль] [ЛС]

Красная вдова
Red Widow
Сезон: 1 / Серии: 1-8 из 8

-

  • Год производства: 2013

  • Страна: США

  • Жанр: Драма, криминал

  • Продолжительность: ~00:45:00

  • Кол-во серий/сезонов: Сезон: 1 / Серии: 1-8 из 8

  • Перевод: Профессиональный (многоголосый закадровый) (Fox)

  • Субтитры: Отсутствуют-
  • Режиссер: Билл Джирхарт, Терри МакДонаф, Марк Пеллингтон-
  • В ролях: Рада Митчелл, Стерлинг Бомон, Люк Госс, Горан Вишнич, Джейми Рэй Ньюман, Джейкоб Сальвати, Сулека Мэтью, Эрин Мориарти, Ли Тергесен, Уил Трэвэл
    -
  • Описание: Марта Уэлрэйвин была обычной домохозяйкой из пригорода, которая жила обычной жизнью в Северной Калифорнии. Однажды идеальная жизнь Марты была разрушена когда её муж Франклин, зарабатывавший деньги незаконным путем, был убит. Марта закрывала глаза на дела своего мужа при его жизни, но сейчас ей предстоит продолжить его дело, чтобы спасти своих детей.
    -
  • Качество видео: WEB-DL 720p

  • Формат видео: mkv

  • Видео кодек: H.264

  • Аудио кодек: AC3

  • Видео: 1280x720 at 23.976 fps, MPEG-4 AVC, ~4000 kbps avg

  • Аудио#1: 48 kHz, AC3, 2/0 (L,R) ch, ~192.00 kbps avg (Fox)

  • Аудио#2: 48 kHz, AC3, 3/2 (L,C,R,l,r) + LFE ch, ~384.00 kbps avg

Скриншоты

MediaInfo

Код: copyText_writeLink('this.parentNode.parentNode.nextSibling.nextSibling');
General
Unique ID : 193203126245060669623076351680109203615 (0x91599190FAB538ECA8DCF6033B65D09F)
Complete name : D:\Торенты\Red.Widow.S01.720p.WEB-DL.Rus.Eng.NovaFilmTV\Red.Widow.S01E01.720p.WEB-DL.Rus.Eng.NovaFilmTV.mkv
Format : Matroska
Format version : Version 4 / Version 2
File size : 1.36 GiB
Duration : 43mn 14s
Overall bit rate : 4 501 Kbps
Encoded date : UTC 2013-05-02 18:45:24
Writing application : mkvmerge v6.2.0 ('Promised Land') built on Apr 28 2013 12:22:01
Writing library : libebml v1.3.0 + libmatroska v1.4.0
Video
ID : 1
Format : AVC
Format/Info : Advanced Video Codec
Format profile : [url=mailto:High@L3.1]High@L3.1[/url]
Format settings, CABAC : No
Format settings, ReFrames : 2 frames
Codec ID : V_MPEG4/ISO/AVC
Duration : 43mn 14s
Bit rate : 3 836 Kbps
Width : 1 280 pixels
Height : 720 pixels
Display aspect ratio : 16:9
Frame rate mode : Constant
Frame rate : 23.976 fps
Color space : YUV
Chroma subsampling : 4:2:0
Bit depth : 8 bits
Scan type : Progressive
Bits/(Pixel*Frame) : 0.174
Stream size : 1.16 GiB (85%)
Language : English
Default : No
Forced : No
Color primaries : BT.709
Transfer characteristics : BT.709
Matrix coefficients : BT.709
Audio #1
ID : 2
Format : AC-3
Format/Info : Audio Coding 3
Mode extension : CM (complete main)
Format settings, Endianness : Big
Codec ID : A_AC3
Duration : 43mn 14s
Bit rate mode : Constant
Bit rate : 192 Kbps
Channel(s) : 2 channels
Channel positions : Front: L R
Sampling rate : 48.0 KHz
Bit depth : 16 bits
Compression mode : Lossy
Stream size : 59.4 MiB (4%)
Language : Russian
Default : Yes
Forced : No
Audio #2
ID : 3
Format : AC-3
Format/Info : Audio Coding 3
Mode extension : CM (complete main)
Format settings, Endianness : Big
Codec ID : A_AC3
Duration : 43mn 14s
Bit rate mode : Constant
Bit rate : 384 Kbps
Channel(s) : 6 channels
Channel positions : Front: L C R, Side: L R, LFE
Sampling rate : 48.0 KHz
Bit depth : 16 bits
Compression mode : Lossy
Stream size : 119 MiB (9%)
Language : English
Default : No
Forced : No

Внимание! Раздача ведётся путём добавления новых серий

Внимание! Раздача ведётся путём добавления новых серий; при каждом добавлении создётся новый торрент. Чтобы начать докачку новой серии, пользователям необходимо сделать следующее:
  • остановить скачивание,
  • удалить старый торрент у себя из клиента (старые серии удалять не надо),
  • скачать новый торрент и запустить его у себя в клиенте вместо старого, при этом указать клиенту путь в старую папку куда и должно происходить скачивание новых серий.
Ваш клиент при этом должен произвести хеширование (проверку) старой папки (если не производит сам - помогите ему сделать это), и будет докачивать только те серии которых у вас ещё нет. Старые серии при этом не удаляются, а продолжают раздаваться!
Eсли вы уже удалили старые серии, то предотвратить повторную закачку старых серий можно, отжав галочку в соответсвующих местах при запуске нового торрента. По возможности, желательно не удалять старые серии как можно дольше, чтобы релизёр не столько продолжал раздавать старые серии, а смог сконцентрироваться на новых.

_________________
Показать сообщения:    

Текущее время: Сегодня 10:54

Часовой пояс: GMT



Вы не можете начинать темы
Вы не можете отвечать на сообщения
Вы не можете редактировать свои сообщения
Вы не можете удалять свои сообщения
Вы не можете голосовать в опросах
Вы не можете прикреплять файлы к сообщениям
Вы не можете скачивать файлы