Ивановский Торрент трекер
Яндекс.Погода
Статистика раздачи
Размер:  9.35 GB   |    Зарегистрирован:  1 год 1 месяц   |    Скачан:  0 раз

Полного источника не было: Никогда

 
     
 
 
 

[Цитировать]
HUNTER

Красавчик Алфи, или Чего хотят мужчины / Alfie
Страна: Великобритания, США
Жанр: драма, мелодрама, комедия
Год выпуска: 2004
Продолжительность: 01:45:36
Перевод: Профессиональный (дублированный)
+ Профессиональный (двухголосый, закадровый) Tycoon
+ Профессиональный (многоголосый, закадровый)
+ Профессиональный (многоголосый, закадровый) ТНТ
+ Авторский одноголосый С.Визгунов
+ Одноголосый закадровый (неизвестный)
Cубтитры: русские, английские
Оригинальная аудиодорожка: английский-Режиссер: Чарльз Шайер / Charles Shyer-В ролях: Джуд Лоу, Мариса Томей, Сьюзен Сарандон, Рене Тейлор, Джейн Краковски, Джефф Хардинг, Кевин Рахм, Омар Эппс, Ниа Лонг, Макс Моррис-Описание: Молодой англичанин Алфи живет в Нью-Йорке и работает шофером лимузина в маленькой фирме, принадлежащей истеричному японцу. Когда за рулем роскошной машины сидит красавец, уже не так важно, чья она. Женщины кружат вокруг Алфи как мотыльки. Успех у противоположного пола развращает.
Бабник Алфи легко порхает от женщины к женщине, легко одаривает их своим вниманием и так же легко с ними расстается. Мало, кто отваживается на моногамию, когда вокруг столько искушений. Алфи даже не пытался остепениться. Ему нравится такая жизнь – сегодня одна подружка, завтра другая. Но, как правило, в жизни каждого человека наступает момент, когда приходится платить по счетам.-Релиз:
-Качество видео: WEB-DL
Формат видео: MKV
Видео: 1920x1080 at 23.976 fps, MPEG-4 AVC, ~10000 kbps avg
Аудио: Russian: 48 kHz, AC3, 3/2 (L,C,R,l,r) + LFE ch, ~384.00 kbps avg |Дубляж, iTunes Russia|
Аудио: Russian: 48 kHz, AC3, 3/2 (L,C,R,l,r) + LFE ch, ~448.00 kbps avg |Двухголосый закадровый, Tycoon|
Аудио: Russian: 48 kHz, AC3, 3/2 (L,C,R,l,r) + LFE ch, ~384.00 kbps avg |Многоголосый закадровый|
Аудио: Russian: 48 kHz, AC3, 2/0 (L,R) ch, ~192.00 kbps avg |Многоголосый закадровый, THT|
Аудио: Russian: 48 kHz, AC3, 2/0 (L,R) ch, ~192.00 kbps avg |Сергей Визгунов|
Аудио: Russian: 48 kHz, AC3, 3/2 (L,C,R,l,r) + LFE ch, ~384.00 kbps avg |Одноголосый закадровый, Неизвестный|
Аудио: Ukrainian: 48 kHz, AC3, 2/0 (L,R) ch, ~192.00 kbps avg |Многоголосый закадровый, Так Треба Продакшн на замовлення т/к Інтер|
Аудио: Ukrainian: 48 kHz, AC3, 2/0 (L,R) ch, ~192.00 kbps avg |Двухголосый закадровый, Новий канал|
Аудио: English: 48 kHz, AC3, 3/2 (L,C,R,l,r) + LFE ch, ~384.00 kbps avg |iTunes|-Скачать сэмпл-Цитата:
  • Сохранены оригинальные главы.
  • За Визгунова спасибо: за оцифровку с VHS - d_rocker, за синхронизацию - ale_x2008.
  • За украинские спасибо Гуртом.

MediaInfo

Формат                                   : Matroska
Версия формата                           : Version 4 / Version 2
Размер файла                             : 9,35 Гбайт
Продолжительность                        : 1 ч. 45 м.
Общий поток                              : 12,7 Мбит/сек
Название фильма                          : Alfie (2004) - Release for HDCLUB
Дата кодирования                         : UTC 2016-10-10 08:31:42
Программа кодирования                    : mkvmerge v8.1.0 ('Psychedelic Postcard') 32bit
Библиотека кодирования                   : libebml v1.3.1 + libmatroska v1.4.2
Видео
Идентификатор                            : 1
Формат                                   : AVC
Формат/Информация                        : Advanced Video Codec
Профиль формата                          : High@L4
Параметр CABAC формата                   : Да
Параметр ReFrames формата                : 4 кадра
Идентификатор кодека                     : V_MPEG4/ISO/AVC
Продолжительность                        : 1 ч. 45 м.
Вид битрейта                             : Постоянный
Битрейт                                  : 10000 Кбит/сек
Ширина                                   : 1920 пикселей
Высота                                   : 1080 пикселей
Соотношение сторон                       : 16:9
Режим частоты кадров                     : Постоянный
Частота кадров                           : 23,976 (24000/1001) кадра/сек
Цветовое пространство                    : YUV
Субдискретизация насыщенности            : 4:2:0
Битовая глубина                          : 8 бит
Тип развёртки                            : Прогрессивная
Бит/(Пиксели*Кадры)                      : 0.201
Размер потока                            : 7,32 Гбайт (78%)
Язык                                     : English
Default                                  : Да
Forced                                   : Нет
Цветовой диапазон                        : Limited
Основные цвета                           : BT.709
Характеристики трансфера                 : BT.709
Коэффициенты матрицы                     : BT.709
Аудио #1
Идентификатор                            : 2
Формат                                   : AC-3
Формат/Информация                        : Audio Coding 3
Расширение режима                        : CM (complete main)
Параметр Endianness формата              : Big
Идентификатор кодека                     : A_AC3
Продолжительность                        : 1 ч. 45 м.
Вид битрейта                             : Постоянный
Битрейт                                  : 384 Кбит/сек
Каналы                                   : 6 каналов
Расположение каналов                     : Front: L C R, Side: L R, LFE
Частота                                  : 48,0 КГц
Частота кадров                           : 31,250 кадров/сек (1536 spf)
Метод сжатия                             : С потерями
Размер потока                            : 290 Мбайт (3%)
Заголовок                                : Дубляж, iTunes Russia
Язык                                     : Russian
Default                                  : Да
Forced                                   : Нет
Аудио #2
Идентификатор                            : 3
Формат                                   : AC-3
Формат/Информация                        : Audio Coding 3
Расширение режима                        : CM (complete main)
Параметр Endianness формата              : Big
Идентификатор кодека                     : A_AC3
Продолжительность                        : 1 ч. 45 м.
Вид битрейта                             : Постоянный
Битрейт                                  : 448 Кбит/сек
Каналы                                   : 6 каналов
Расположение каналов                     : Front: L C R, Side: L R, LFE
Частота                                  : 48,0 КГц
Частота кадров                           : 31,250 кадров/сек (1536 spf)
Метод сжатия                             : С потерями
Размер потока                            : 338 Мбайт (4%)
Заголовок                                : Двухголосый закадровый, Tycoon
Язык                                     : Russian
Default                                  : Нет
Forced                                   : Нет
Аудио #3
Идентификатор                            : 4
Формат                                   : AC-3
Формат/Информация                        : Audio Coding 3
Расширение режима                        : CM (complete main)
Параметр Endianness формата              : Big
Идентификатор кодека                     : A_AC3
Продолжительность                        : 1 ч. 45 м.
Вид битрейта                             : Постоянный
Битрейт                                  : 384 Кбит/сек
Каналы                                   : 6 каналов
Расположение каналов                     : Front: L C R, Side: L R, LFE
Частота                                  : 48,0 КГц
Частота кадров                           : 31,250 кадров/сек (1536 spf)
Метод сжатия                             : С потерями
Размер потока                            : 290 Мбайт (3%)
Заголовок                                : Многоголосый закадровый
Язык                                     : Russian
Default                                  : Нет
Forced                                   : Нет
Аудио #4
Идентификатор                            : 5
Формат                                   : AC-3
Формат/Информация                        : Audio Coding 3
Расширение режима                        : CM (complete main)
Параметр Endianness формата              : Big
Идентификатор кодека                     : A_AC3
Продолжительность                        : 1 ч. 45 м.
Вид битрейта                             : Постоянный
Битрейт                                  : 192 Кбит/сек
Каналы                                   : 2 канала
Расположение каналов                     : Front: L R
Частота                                  : 48,0 КГц
Частота кадров                           : 31,250 кадров/сек (1536 spf)
Метод сжатия                             : С потерями
Размер потока                            : 145 Мбайт (2%)
Заголовок                                : Многоголосый закадровый, THT
Язык                                     : Russian
Default                                  : Нет
Forced                                   : Нет
Аудио #5
Идентификатор                            : 6
Формат                                   : AC-3
Формат/Информация                        : Audio Coding 3
Расширение режима                        : CM (complete main)
Параметр Endianness формата              : Big
Идентификатор кодека                     : A_AC3
Продолжительность                        : 1 ч. 45 м.
Вид битрейта                             : Постоянный
Битрейт                                  : 192 Кбит/сек
Каналы                                   : 2 канала
Расположение каналов                     : Front: L R
Частота                                  : 48,0 КГц
Частота кадров                           : 31,250 кадров/сек (1536 spf)
Метод сжатия                             : С потерями
Размер потока                            : 145 Мбайт (2%)
Заголовок                                : Одноголосый закадровый, Сергей Визгунов
Язык                                     : Russian
Default                                  : Нет
Forced                                   : Нет
Аудио #6
Идентификатор                            : 7
Формат                                   : AC-3
Формат/Информация                        : Audio Coding 3
Расширение режима                        : CM (complete main)
Параметр Endianness формата              : Big
Идентификатор кодека                     : A_AC3
Продолжительность                        : 1 ч. 45 м.
Вид битрейта                             : Постоянный
Битрейт                                  : 384 Кбит/сек
Каналы                                   : 6 каналов
Расположение каналов                     : Front: L C R, Side: L R, LFE
Частота                                  : 48,0 КГц
Частота кадров                           : 31,250 кадров/сек (1536 spf)
Метод сжатия                             : С потерями
Размер потока                            : 290 Мбайт (3%)
Заголовок                                : Одноголосый закадровый, Неизвестный
Язык                                     : Russian
Default                                  : Нет
Forced                                   : Нет
Аудио #7
Идентификатор                            : 8
Формат                                   : AC-3
Формат/Информация                        : Audio Coding 3
Расширение режима                        : CM (complete main)
Параметр Endianness формата              : Big
Идентификатор кодека                     : A_AC3
Продолжительность                        : 1 ч. 45 м.
Вид битрейта                             : Постоянный
Битрейт                                  : 192 Кбит/сек
Каналы                                   : 2 канала
Расположение каналов                     : Front: L R
Частота                                  : 48,0 КГц
Частота кадров                           : 31,250 кадров/сек (1536 spf)
Метод сжатия                             : С потерями
Размер потока                            : 145 Мбайт (2%)
Заголовок                                : Многоголосый закадровый, Так Треба Продакшн на замовлення т/к Інтер
Язык                                     : Ukrainian
Default                                  : Нет
Forced                                   : Нет
Аудио #8
Идентификатор                            : 9
Формат                                   : AC-3
Формат/Информация                        : Audio Coding 3
Расширение режима                        : CM (complete main)
Параметр Endianness формата              : Big
Идентификатор кодека                     : A_AC3
Продолжительность                        : 1 ч. 45 м.
Вид битрейта                             : Постоянный
Битрейт                                  : 192 Кбит/сек
Каналы                                   : 2 канала
Расположение каналов                     : Front: L R
Частота                                  : 48,0 КГц
Частота кадров                           : 31,250 кадров/сек (1536 spf)
Метод сжатия                             : С потерями
Размер потока                            : 145 Мбайт (2%)
Заголовок                                : Двухголосый закадровый, Новий канал
Язык                                     : Ukrainian
Default                                  : Нет
Forced                                   : Нет
Аудио #9
Идентификатор                            : 10
Формат                                   : AC-3
Формат/Информация                        : Audio Coding 3
Расширение режима                        : CM (complete main)
Параметр Endianness формата              : Big
Идентификатор кодека                     : A_AC3
Продолжительность                        : 1 ч. 45 м.
Вид битрейта                             : Постоянный
Битрейт                                  : 384 Кбит/сек
Каналы                                   : 6 каналов
Расположение каналов                     : Front: L C R, Side: L R, LFE
Частота                                  : 48,0 КГц
Частота кадров                           : 31,250 кадров/сек (1536 spf)
Метод сжатия                             : С потерями
Размер потока                            : 290 Мбайт (3%)
Заголовок                                : iTunes
Язык                                     : English
Default                                  : Нет
Forced                                   : Нет
Текст #1
Идентификатор                            : 11
Формат                                   : UTF-8
Идентификатор кодека                     : S_TEXT/UTF8
Идентификатор кодека/Информация          : UTF-8 Plain Text
Продолжительность                        : 1 ч. 39 м.
Битрейт                                  : 101 бит/сек
Count of elements                        : 1173
Размер потока                            : 73,7 Кбайт (0%)
Заголовок                                : Zaxxy
Язык                                     : Russian
Default                                  : Нет
Forced                                   : Нет
Текст #2
Идентификатор                            : 12
Формат                                   : UTF-8
Идентификатор кодека                     : S_TEXT/UTF8
Идентификатор кодека/Информация          : UTF-8 Plain Text
Продолжительность                        : 1 ч. 39 м.
Битрейт                                  : 97 бит/сек
Count of elements                        : 1150
Размер потока                            : 70,5 Кбайт (0%)
Заголовок                                : Tycoon
Язык                                     : Russian
Default                                  : Нет
Forced                                   : Нет
Текст #3
Идентификатор                            : 13
Формат                                   : UTF-8
Идентификатор кодека                     : S_TEXT/UTF8
Идентификатор кодека/Информация          : UTF-8 Plain Text
Продолжительность                        : 1 ч. 36 м.
Битрейт                                  : 58 бит/сек
Count of elements                        : 1169
Размер потока                            : 41,5 Кбайт (0%)
Заголовок                                : iTunes
Язык                                     : English
Default                                  : Нет
Forced                                   : Нет
Текст #4
Идентификатор                            : 14
Формат                                   : UTF-8
Идентификатор кодека                     : S_TEXT/UTF8
Идентификатор кодека/Информация          : UTF-8 Plain Text
Продолжительность                        : 1 ч. 44 м.
Битрейт                                  : 64 бит/сек
Count of elements                        : 1742
Размер потока                            : 48,9 Кбайт (0%)
Заголовок                                : Amazon
Язык                                     : English
Default                                  : Нет
Forced                                   : Нет
Меню
00:00:00.000                             : en:1
00:05:58.000                             : en:2
00:10:16.000                             : en:3
00:14:36.000                             : en:4
00:20:04.000                             : en:5
00:27:02.000                             : en:6
00:34:07.000                             : en:7
00:42:35.000                             : en:8
00:49:18.000                             : en:9
00:58:43.000                             : en:10
01:05:14.000                             : en:11
01:11:10.000                             : en:12
01:16:41.000                             : en:13
01:23:39.000                             : en:14
01:31:40.000                             : en:15
01:38:15.000                             : en:16

Скриншоты

[iv-torrents.ru].t63116.torrent
Торрент: Зарегистрирован [ 2016-10-17 19:45 ] · 76DC4B857093DACE3940D797F6F25A1424B947C5

Скачать .torrent

Скачать

47 KB

Статус: проверено
Скачан: 0 раз
Размер: 9.35 GB
terms.php
Похожие темы


Показать сообщения:    

Текущее время: 13-Дек 07:29

Часовой пояс: UTC ± 0


Вы не можете начинать темы
Вы не можете отвечать на сообщения
Вы не можете редактировать свои сообщения
Вы не можете удалять свои сообщения
Вы не можете голосовать в опросах
Вы не можете прикреплять файлы к сообщениям
Вы можете скачивать файлы

!ВНИМАНИЕ!
Сайт не предоставляет электронные версии произведений, а занимается лишь коллекционированием и каталогизацией ссылок, присылаемых и публикуемых на форуме нашими читателями. Если вы являетесь правообладателем какого-либо представленного материала и не желаете, чтобы ссылка на него находилась в нашем каталоге, свяжитесь с нами, и мы незамедлительно удалим ее. Файлы для обмена на трекере предоставлены пользователями сайта, и администрация не несет ответственности за их содержание. Просьба не заливать файлы, защищенные авторскими правами, а также файлы нелегального содержания!