Ивановский Торрент трекер
Яндекс.Погода
 

[Цитировать]
palych74

Красавица -Год выпуска: 2012
Производство: Украина, «Мостелефильм» по заказу «Первого канала»
Жанр: Мелодрама
Продолжительность: 00:49:20
Режиссёр: Алексей Козлов-В ролях: Анастасия Микульчина, Владимир Жеребцов, Валерий Баринов, Егор Будкевич, Вадим Андреев, Александр Яцко, Артём Ткаченко, Людмила Нильская, Мария Звонарёва, Вера Воронкова, Ёла Санько, Вадим Норштейн, Кирилл Жандаров, Алёна Азарова, Сергей Яценюк, Полина Воробьева-Описание: Главная героиня сериала — Анна Королева— первая красавица города. Она давно свыклась с мыслью, что всех интересует только ее внешность. Ее окружают цветы и поклонники, от женихов нет отбоя. Местный бандит Жуков также не смог перед ней устоять, однако Анна осталась неприступна — не любит она Жукова. Тот в отместку нанимает бандитов проучить строптивую красавицу. Свидетелем нападения становится случайный прохожий — Андрей Савин, который вступается за девушку. Неожиданно для всех Анна влюбляется в Андрея. Узнав о романе Анны, Жуков приходит в бешенство. Выяснив, что бывшая возлюбленная беременна, он сообщает Андрею, что это, якобы, ребенок его, Жукова. Андрей пытается выяснить правду, но Анна, обиженная его недоверием, заявляет, что действительно беременна от бандита. Андрей уходит от нее, Анна делает аборт. Если бы она только могла предположить, к чему приведет ее гордыня....-Доп.информация:
Любая реклама ОТСУТСТВУЕТ!--Сэмпл-Релиз:
Качество: SATRip
Формат: AVI
Видео кодек: XviD
Аудио кодек: MP3
Видео: 720x384 (1.88:1), 25 fps, XviD build 50 ~1561 kbps avg, 0.23 bit/pixel
Аудио: 48 kHz, MPEG Layer 3, 2 ch, ~192.00 kbps avg

MI

Общее
Полное имя : C:\2012\Krasavica.2012.SATRip\Krasavica.01.2012.SATRip.avi
Формат : AVI
Формат/Информация : Audio Video Interleave
Размер файла : 621 Мбайт
Продолжительность : 49 м.
Общий поток : 1763 Кбит/сек
Программа кодирования : VirtualDubMod 1.5.10.3 | www.virtualdub-fr.org || (build 2550/release)
Библиотека кодирования : Boilsoft AVI tool build 1/release
Видео
Идентификатор : 0
Формат : MPEG-4 Visual
Профиль формата : Advanced Simple@L5
Параметр BVOP формата : 1
Параметр QPel формата : Нет
Параметр GMC формата : Без точки перехода
Параметр матрицы формата : Default (H.263)
Идентификатор кодека : XVID
Идентификатор кодека/Подсказка : XviD
Продолжительность : 49 м.
Битрейт : 1561 Кбит/сек
Ширина : 720 пикселей
Высота : 384 пикселя
Соотношение сторон : 1,875
Частота кадров : 25,000 кадров/сек
Цветовое пространство : YUV
Субдискретизация насыщенности : 4:2:0
Битовая глубина : 8 бит
Тип развёртки : Прогрессивная
Метод сжатия : С потерями
Бит/(Пиксели*Кадры) : 0.226
Размер потока : 550 Мбайт (89%)
Библиотека кодирования : XviD 1.2.1 (UTC 2008-12-04)
Аудио
Идентификатор : 1
Формат : MPEG Audio
Версия формата : Version 1
Профиль формата : Layer 3
Режим : Joint stereo
Расширение режима : MS Stereo
Идентификатор кодека : 55
Идентификатор кодека/Подсказка : MP3
Продолжительность : 49 м.
Вид битрейта : Постоянный
Битрейт : 192 Кбит/сек
Каналы : 2 канала
Частота : 48,0 КГц
Метод сжатия : С потерями
Размер потока : 67,6 Мбайт (11%)
Выравнивание : Соединение по промежуткам
Продолжительность промежутка : 40 мс. (1,00 видеокадр)
Время предзагрузки промежутка : 504 мс.
Библиотека кодирования : LAME3.98r
Настройки программы : -m j -V 4 -q 2 -lowpass 18.6 -b 192

Скриншоты

Показать сообщения:    

Текущее время: 20-Сен 02:59

Часовой пояс: UTC - 1


Вы не можете начинать темы
Вы не можете отвечать на сообщения
Вы не можете редактировать свои сообщения
Вы не можете удалять свои сообщения
Вы не можете голосовать в опросах
Вы не можете прикреплять файлы к сообщениям
Вы не можете скачивать файлы

!ВНИМАНИЕ!
Сайт не предоставляет электронные версии произведений, а занимается лишь коллекционированием и каталогизацией ссылок, присылаемых и публикуемых на форуме нашими читателями. Если вы являетесь правообладателем какого-либо представленного материала и не желаете, чтобы ссылка на него находилась в нашем каталоге, свяжитесь с нами, и мы незамедлительно удалим ее. Файлы для обмена на трекере предоставлены пользователями сайта, и администрация не несет ответственности за их содержание. Просьба не заливать файлы, защищенные авторскими правами, а также файлы нелегального содержания!