Важное объявление!
У Нас Все раздачи мультитрекерные, при нуле пиров в релизах, можете смело вставать на закачку!
 
Автор Сообщение

димитри37

Стаж:
3 года 11 месяцев
Сообщений:
1236

Репутация: 127

[+] [-]
Вне форума [Профиль] [ЛС]

Красавица
Год выпуска: 2012
Производство: Россия, телекомпания «Мостелефильм» по заказу «Первого канала»
Жанр: Мелодрама
Продолжительность: 8х ~ 00:45:00
Субтитры: нет
Режиссёр: Алексей Козлов
В ролях: Анастасия Микульчина, Владимир Жеребцов, Валерий Баринов, Егор Будкевич, Вадим Андреев, Александр Яцко, Артём Ткаченко, Людмила Нильская, Мария Звонарёва, Вера Воронкова, Ёла Санько, Вадим Норштейн, Кирилл Жандаров, Алёна Азарова, Сергей Яценюк, Полина Воробьева
Описание: Главная героиня сериала — Анна Королева— первая красавица города. Она давно свыклась с мыслью, что всех интересует только ее внешность. Ее окружают цветы и поклонники, от женихов нет отбоя. Местный бандит Жуков также не смог перед ней устоять, однако Анна осталась неприступна — не любит она Жукова. Тот в отместку нанимает бандитов проучить строптивую красавицу. Свидетелем нападения становится случайный прохожий — Андрей Савин, который вступается за девушку. Неожиданно для всех Анна влюбляется в Андрея. Узнав о романе Анны, Жуков приходит в бешенство. Выяснив, что бывшая возлюбленная беременна, он сообщает Андрею, что это, якобы, ребенок его, Жукова. Андрей пытается выяснить правду, но Анна, обиженная его недоверием, заявляет, что действительно беременна от бандита. Андрей уходит от нее, Анна делает аборт. Если бы она только могла предположить, к чему приведет ее гордыня....
Все раздачи сериала
Сэмпл
Качество: HDTVRip
Формат: AVI
Видео кодек: XviD
Аудио кодек: АС3
Видео: 720x400 (1.80:1), 25 fps, XviD build 50 ~1438 kbps avg, 0.20 bit/pixel
Аудио: 48 kHz, AC3 Dolby Digital, 2/0 (L,R) ch, ~192.00 kbps avg

MI

General
Complete name : V:\ftp4\Videos\Красавица.01.seriya.2012.XviD.HDTVRip.Files-x.avi
Format : AVI
Format/Info : Audio Video Interleave
File size : 602 MiB
Duration : 51mn 18s
Overall bit rate : 1 640 Kbps
Writing application : VirtualDubMod 1.5.10.3 | www.virtualdub-fr.org || (build 2550/release)
Writing library : VirtualDubMod build 2550/release
Video
ID : 0
Format : MPEG-4 Visual
Format profile : Advanced Simple@L5
Format settings, BVOP : 1
Format settings, QPel : No
Format settings, GMC : No warppoints
Format settings, Matrix : Default (H.263)
Codec ID : XVID
Codec ID/Hint : XviD
Duration : 51mn 18s
Bit rate : 1 439 Kbps
Width : 720 pixels
Height : 400 pixels
Display aspect ratio : 16:9
Frame rate : 25.000 fps
Color space : YUV
Chroma subsampling : 4:2:0
Bit depth : 8 bits
Scan type : Progressive
Compression mode : Lossy
Bits/(Pixel*Frame) : 0.200
Stream size : 528 MiB (88%)
Writing library : XviD 1.2.1 (UTC 2008-12-04)
Audio
ID : 1
Format : AC-3
Format/Info : Audio Coding 3
Mode extension : CM (complete main)
Format settings, Endianness : Big
Codec ID : 2000
Duration : 51mn 18s
Bit rate mode : Constant
Bit rate : 192 Kbps
Channel(s) : 2 channels
Channel positions : Front: L R
Sampling rate : 48.0 KHz
Bit depth : 16 bits
Compression mode : Lossy
Stream size : 70.5 MiB (12%)
Alignment : Split accross interleaves
Interleave, duration : 40 ms (1.00 video frame)
Interleave, preload duration : 500 ms

Скриншоты

Раздача ведется путем добавления новых серий

Внимание! Раздача ведётся путём добавления новых серий; при каждом добавлении создётся новый торрент. Чтобы начать докачку новой серии, пользователям необходимо сделать следующее:
(1) остановить скачивание,
(2) удалить старый торрент у себя из клиента (старые серии удалять не надо),
(3) скачать новый торрент и запустить его у себя в клиенте вместо старого, при этом указать клиенту путь в старую папку куда и должно происходить скачивание новых серий.
Ваш клиент при этом должен произвести хеширование (проверку) старой папки (если не производит сам - помогите ему сделать это), и будет докачивать только те серии которых у вас ещё нет. Старые серии при этом не удаляются, а продолжают раздаваться!
Eсли вы уже удалили старые серии, то предотвратить повторную закачку старых серий можно, отжав галочку в соответствующих местах при запуске нового торрента.
Показать сообщения:    

Текущее время: Сегодня 12:34

Часовой пояс: GMT



Вы не можете начинать темы
Вы не можете отвечать на сообщения
Вы не можете редактировать свои сообщения
Вы не можете удалять свои сообщения
Вы не можете голосовать в опросах
Вы не можете прикреплять файлы к сообщениям
Вы не можете скачивать файлы
Наши партнеры: интернет магазин Ивановского трикотажа textilla.ru