Важное объявление!
У Нас Все раздачи мультитрекерные, при нуле пиров в релизах, можете смело вставать на закачку!
 
Автор Сообщение

HUNTER

Стаж:
4 года 6 месяцев
Сообщений:
60959

Репутация: 101

[+] [-]
Вне форума [Профиль] [ЛС]

Красавица и чудовище / La belle et la beteЛучшие волшебные сказки
Страна: Франция, Германия
Жанр: фэнтези, мелодрама
Год выпуска: 2014
Продолжительность: 01:48:32
Перевод: Профессиональный (дублированный) [студия Пифагор по заказу компании Вест]
Cубтитры: нет
Оригинальная аудиодорожка: нет
Режиссер: Кристоф Ганс / Christophe Gans
В ролях: Леа Сейду, Венсан Кассель, Андре Дюссолье, Эдуардо Норьега, Мириам Шарленс, Одри Лами, Сара Жиродо, Жонатан Демурже, Николя Гоб, Лука Мельява
Описание: Дочь купца, смелая и отважная Белль, отправляется в замок чудовища, чтобы спасти жизнь своего отца. Очутившись в замке, Белль попадает в потусторонний мир волшебства, фантастических приключений и загадочной меланхолии.
Оказывается, что наводившее ужас на всю округу чудовище очень несчастно, а в его груди бьется доброе сердце. Белль все больше проникается симпатией к своему ужасному господину.
Благодаря пылкому сердцу и храбрости, она преодолевает все опасности, чтобы снять зловещие чары с чудовища. Но это произойдет, только если его сможет полюбить прекрасная девушка.
Сэмпл: http://multi-up.com/1113923
[img]https://rating.kinopoisk.ru/674218.gif[/img]
Тип релиза: HDTV 1080i
Контейнер: TS
Видео: AVC/H.264, PAL, 1920х1080 (16:9), 25 fps, 7662 Кбит/сек
Аудио: русский, MP2, 48000 Hz, 192 Кбит/сек, 2 ch

MediaInfo

Общее
Идентификатор : 1 (0x1)
Полное имя : C:\Users\User\Desktop\La belle et la bete.ts
Формат : MPEG-TS
Размер файла : 6,26 Гбайт
Продолжительность : 1 ч. 48 м.
Режим общего битрейта : Переменный
Общий поток : 8264 Кбит/сек
Максимальный общий битрейт : 35,5 Мбит/сек
Видео
Идентификатор : 4113 (0x1011)
Идентификатор меню : 1 (0x1)
Формат : AVC
Формат/Информация : Advanced Video Codec
Профиль формата : Main@L4.0
Параметр CABAC формата : Да
Параметр ReFrames формата : 4 кадра
Идентификатор кодека : 27
Продолжительность : 1 ч. 48 м.
Вид битрейта : Переменный
Битрейт : 7662 Кбит/сек
Максимальный битрейт : 40,0 Мбит/сек
Ширина : 1920 пикселей
Высота : 1080 пикселей
Соотношение сторон : 16:9
Частота кадров : 25,000 кадров/сек
Цветовое пространство : YUV
Субдискретизация насыщенности : 4:2:0
Битовая глубина : 8 бит
Тип развёртки : Чересстрочная
Порядок развёртки : Верхнее поле первое
Бит/(Пиксели*Кадры) : 0.148
Размер потока : 5,81 Гбайт (93%)
colour_range : Limited
Аудио
Идентификатор : 4352 (0x1100)
Идентификатор меню : 1 (0x1)
Формат : MPEG Audio
Версия формата : Version 1
Профиль формата : Layer 2
Идентификатор кодека : 4
Продолжительность : 1 ч. 48 м.
Вид битрейта : Постоянный
Битрейт : 192 Кбит/сек
Каналы : 2 канала
Частота : 48,0 КГц
Метод сжатия : С потерями
Размер потока : 149 Мбайт (2%)
Язык : Russian

Скриншот с названием фильма

Скриншоты


_________________
Показать сообщения:    

Текущее время: Сегодня 19:47

Часовой пояс: GMT



Вы не можете начинать темы
Вы не можете отвечать на сообщения
Вы не можете редактировать свои сообщения
Вы не можете удалять свои сообщения
Вы не можете голосовать в опросах
Вы не можете прикреплять файлы к сообщениям
Вы не можете скачивать файлы
Наши партнеры: интернет магазин Ивановского трикотажа textilla.ru