Красавица и чудовище / Beauty and the Beast, Первая версия (Гэри Труздейл / Gary Trousdale, Кирк Уайз / Kirk Wise) [1991, США, мультфильм, VHSRip] AVO (Гаврилов) :: Ивановский Торрент трекер
Важное объявление!
У Нас Все раздачи мультитрекерные, при нуле пиров в релизах, можете смело вставать на закачку!
Статистика раздачи
Размер:     |    Зарегистрирован:     |    Скачан:     |   
Нет
 
     
 
 
Автор Сообщение

HUNTER

Стаж:
4 года 11 месяцев
Сообщений:
66112

Репутация: 101

[+] [-]
Вне форума [Профиль] [ЛС]

Красавица и чудовище / Beauty and the Beast, Первая версия-
Год выпуска: США
Страна: 1991
Жанры: анимациионный фильм, детский, семейный, музыкальный
Продолжительность: 01:26:09
Перевод: Авторский (одноголосый) - Андрей Гаврилов
Русские субтитры: нет
Режиссёры: Гэри Труздейл / Gary Trousdale и Кирк Уайз / Kirk Wise
Роли озвучивали: Пейдж О’Хара, Робби Бенсон, Ричард Уайт, Джерри Орбак, Дэвид Огден Стайерз, Анджела Лэнсбери, Брэдли Пирс, Рекс Эверхарт, Джесси Корти, Хэл Смит
Описание:
В зачарованном замке, сокрытом в чаще тёмного волшебного леса, живёт ужасное Чудовище.
Его все боятся и ненавидят.
Только тот, кто растопит лёд в сердце чудовища и сможет полюбить его таким, какой он есть, вернёт ему человеческий облик.
Прекрасная Белль волею случая оказывается в замке и влюбляется в Чудовище.
Но, чтобы его спасти и снять чары, девушке придется выступить против всех,
ведь жители ее деревни, подстрекаемые злобным охотником Гастоном, хотят погубить доброе Чудовище…

Качество: VHSRip
Формат: AVI
Видео кодек: XviD
Аудио кодек: AC3
Видео: 640x480, 25 fps, XviD build 47, 2161 kbps avg, 0.28 bit/pixel
Аудио: Audio: 48 kHz, AC3 Dolby Digital, 2/0 (L,R) ch (Андрей Гаврилов), ~192.00 kbps avg
Примечание:
Здесь представлена самая первая версия фильма, которая не выходила в современных форматах.
Её и переводил Андрей Гаврилов.
Уже в первом издании на DVD, 2002 года, были сделаны изменения: другой монтаж, другая рисовка, добавления, другой цвет.
В издании на DVD, в 2010 году, снова произошли изменения.
А при издании на BD фильм подвергся новым изменениям.
Фильм оцифрован с видеокассеты на видеомагнитофоне Hi-Fi Stereo (6 Heads).

MediaInfo:

GeneralComplete name : Beauty_and_the_Beast_The_First_VersionFormat : AVIFormat/Info : Audio Video InterleaveFile size : 1.42 GiBDuration : 1h 26mnOverall bit rate : 2 364 KbpsWriting application : VirtualDubMod 1.5.10.2 (build 2540/release)Writing library : VirtualDubMod build 2540/release
VideoID : 0Format : MPEG-4 VisualFormat profile : Advanced Simple@L5Format settings, BVOP : 1Format settings, QPel : NoFormat settings, GMC : No warppointsFormat settings, Matrix : Default (H.263)Codec ID : XVIDCodec ID/Hint : XviDDuration : 1h 26mnBit rate : 2 162 KbpsWidth : 640 pixelsHeight : 480 pixelsDisplay aspect ratio : 4:3Frame rate : 25.000 fpsColor space : YUVChroma subsampling : 4:2:0Bit depth : 8 bitsScan type : ProgressiveCompression mode : LossyBits/(Pixel*Frame) : 0.281Stream size : 1.30 GiB (91%)Writing library : XviD 1.2.0.dev47 (UTC 2006-11-01)
AudioID : 1Format : AC-3Format/Info : Audio Coding 3Mode extension : CM (complete main)Codec ID : 2000Duration : 1h 26mnBit rate mode : ConstantBit rate : 192 KbpsChannel(s) : 2 channelsChannel positions : Front: L RSampling rate : 48.0 KHzBit depth : 16 bitsCompression mode : LossyStream size : 118 MiB (8%)Alignment : Split accross interleavesInterleave, duration : 40 ms (1.00 video frame)Interleave, preload duration : 500 ms
Помните про кнопочку "Спасибо"
Приятного просмотра!
© Синта Рурони, 2014.
© 緋村猫, 2014.

_________________
Показать сообщения:    

Текущее время: Сегодня 17:45

Часовой пояс: GMT



Вы не можете начинать темы
Вы не можете отвечать на сообщения
Вы не можете редактировать свои сообщения
Вы не можете удалять свои сообщения
Вы не можете голосовать в опросах
Вы не можете прикреплять файлы к сообщениям
Вы не можете скачивать файлы