Ивановский Торрент трекер
Яндекс.Погода
 

[Цитировать]
HUNTER

Красавица и Чудовище
Beauty and the Beast
Сезон: 1 / Серии: 1-14 из 22

-Год производства: 2012
Страна: USA
Жанр: драма, криминал
Продолжительность: ~00:45:00
Кол-во серий/сезонов: 1 Сезон: серий 1-14 из 22
Перевод: Профессиональный (двухголосый закадровый) (New Studio)
Субтитры: Отсутствуют-Режиссер: Гэри Фледер-В ролях: Кристин Кройк, Джей Райан, Джейсон Делайн, Алекс Пэкстон, Николь Гэйл Андерсон, Крис Площански и др.-Описание: В центре сюжета находится умный, жесткий и уверенный в себе детектив убойного отдела Кэтрин Чандлер, которая начинает работать в паре с доктором Винсентом Келлером, бывшим солдатом, который стал жертвой медицинских опытов, вследствие чего теперь обладает огромной физической силой. Вместе они расследуют самые жестокие преступления, совершенные в Нью-Йорке.-Качество видео: WEB-DL 1080p
Формат видео: mkv
Видео кодек: AVC
Аудио кодек: AC3
Видео: AVC, 1920x1080, 23.976 fps, ~4 937 Kbps avg, 0.099 bit/pixel
Аудио#1: AC3, 48.0 KHz, 2 ch, ~192 Kbps (New Studio)
Аудио#2: AC3, 48.0 KHz, 6 ch, ~384 Kbps-

Доп. информация

| |

Скриншоты

MediaInfo

Код: copyText_writeLink('this.parentNode.parentNode.nextSibling.nextSibling');
General
Unique ID : 206162997366048452005067728824179927295 (0x9B198C8B9AA8308B87E0F20231C0A8FF)
Complete name : D:\Торенты\Beauty.and.the.Beast.2012.s01.1080p.WEB.DL.Rus.Eng.NewStudio\Beauty.and.the.Beast.2012.s01e03.1080p.WEB.DL.Rus.Eng.NewStudio.mkv
Format : Matroska
Format version : Version 2
File size : 1.59 GiB
Duration : 40mn 27s
Overall bit rate : 5 613 Kbps
Movie name : Beauty.and.the.Beast.2012.S01E03.1080p.WEB.DL.DD5.1.H.264.KiNGS.mkv 12182
Encoded date : UTC 2012-10-30 00:26:52
Writing application : mkvmerge v5.8.0 ('No Sleep / Pillow') built on Sep 2 2012 15:37:04
Writing library : libebml v1.2.3 + libmatroska v1.3.0
Video
ID : 1
Format : AVC
Format/Info : Advanced Video Codec
Format profile : High@L4.0
Format settings, CABAC : Yes
Format settings, ReFrames : 4 frames
Codec ID : V_MPEG4/ISO/AVC
Duration : 40mn 27s
Bit rate : 4 733 Kbps
Width : 1 920 pixels
Height : 1 080 pixels
Display aspect ratio : 16:9
Frame rate mode : Constant
Frame rate : 23.976 fps
Color space : YUV
Chroma subsampling : 4:2:0
Bit depth : 8 bits
Scan type : Progressive
Bits/(Pixel*Frame) : 0.095
Stream size : 1.34 GiB (84%)
Language : English
Default : Yes
Forced : No
Color primaries : BT.709
Transfer characteristics : BT.709
Matrix coefficients : BT.709
Audio #1
ID : 2
Format : AC-3
Format/Info : Audio Coding 3
Mode extension : CM (complete main)
Format settings, Endianness : Big
Codec ID : A_AC3
Duration : 40mn 27s
Bit rate mode : Constant
Bit rate : 384 Kbps
Channel(s) : 6 channels
Channel positions : Front: L C R, Side: L R, LFE
Sampling rate : 48.0 KHz
Bit depth : 16 bits
Compression mode : Lossy
Stream size : 111 MiB (7%)
Title : NewStudio
Language : Russian
Default : Yes
Forced : No
Audio #2
ID : 3
Format : AC-3
Format/Info : Audio Coding 3
Mode extension : CM (complete main)
Format settings, Endianness : Big
Codec ID : A_AC3
Duration : 40mn 27s
Bit rate mode : Constant
Bit rate : 384 Kbps
Channel(s) : 6 channels
Channel positions : Front: L C R, Side: L R, LFE
Sampling rate : 48.0 KHz
Bit depth : 16 bits
Compression mode : Lossy
Stream size : 111 MiB (7%)
Language : English
Default : No
Forced : No

Внимание! Раздача ведётся путём добавления новых серий

Внимание! Раздача ведётся путём добавления новых серий; при каждом добавлении создётся новый торрент. Чтобы начать докачку новой серии, пользователям необходимо сделать следующее:
  • остановить скачивание,
  • удалить старый торрент у себя из клиента (старые серии удалять не надо),
  • скачать новый торрент и запустить его у себя в клиенте вместо старого, при этом указать клиенту путь в старую папку куда и должно происходить скачивание новых серий.
Ваш клиент при этом должен произвести хеширование (проверку) старой папки (если не производит сам - помогите ему сделать это), и будет докачивать только те серии которых у вас ещё нет. Старые серии при этом не удаляются, а продолжают раздаваться!
Eсли вы уже удалили старые серии, то предотвратить повторную закачку старых серий можно, отжав галочку в соответсвующих местах при запуске нового торрента. По возможности, желательно не удалять старые серии как можно дольше, чтобы релизёр не столько продолжал раздавать старые серии, а смог сконцентрироваться на новых.
Показать сообщения:    

Текущее время: 22-Окт 05:40

Часовой пояс: UTC - 1


Вы не можете начинать темы
Вы не можете отвечать на сообщения
Вы не можете редактировать свои сообщения
Вы не можете удалять свои сообщения
Вы не можете голосовать в опросах
Вы не можете прикреплять файлы к сообщениям
Вы не можете скачивать файлы

!ВНИМАНИЕ!
Сайт не предоставляет электронные версии произведений, а занимается лишь коллекционированием и каталогизацией ссылок, присылаемых и публикуемых на форуме нашими читателями. Если вы являетесь правообладателем какого-либо представленного материала и не желаете, чтобы ссылка на него находилась в нашем каталоге, свяжитесь с нами, и мы незамедлительно удалим ее. Файлы для обмена на трекере предоставлены пользователями сайта, и администрация не несет ответственности за их содержание. Просьба не заливать файлы, защищенные авторскими правами, а также файлы нелегального содержания!