Ивановский Торрент трекер
Яндекс.Погода
 

[Цитировать]
HUNTER

Красавица и чудовище / Beauty and the Beast [Расширенная версия / Extended Edition]«The most beautiful love story ever told as it has never been seen before.»- Страна: США
Жанр: Мультфильм, мюзикл, фэнтези, мелодрама, семейный
Год выпуска: 1991-Продолжительность: 1:31:44
Перевод: Профессиональный (полное дублирование)-Режиссеры: Гари Труздейл / Gary Trousdale, Кирк Уайз / Kirk Wise
Роли озвучивали: Пейдж О’Хара, Робби Бенсон, Ричард Уайт, Джерри Орбак, Дэвид Огден Стайерз, Анджела Лэнсбери, Брэдли Пирс, Рекс Эверхарт, Джесси Корти, Хэл Смит и др.
Роли дублировали: Сауле Искакова Александр Никифоров Олег Куликович Андрей Тенетко Виктор Костецкий, Игорь Шибанов, Валерий Никитенко, Елена Дриацкая, Артем Сергеев, Николай Федорцов, Андрей Матвеев и др.-Описание: В заколдованном замке, скрытом в темном лесу, живет ужасное Чудовище. Растопить лед в его сердце и вернуть ему человеческий облик, сняв заклятие, может только прекрасная девушка, которая полюбит его таким, какой он есть…-Бюджет: $25 000 000
Сборы в США: $218 967 6202 | Сборы в Мире: + $206 000 000 = $424 967 620 | Сборы в России: $1 394 549
Рейтинг MPAA: G (Нет возрастных ограничений!)
-Качество видео: BDRip
Исходник: BDRemux 1080p
Формат видео: AVI
Видео: 624x352 (1.77:1), 23.976 fps, XviD build 73 ~1001 kbps avg, 0.19 bit/pixel
Аудио: 48 kHz, MPEG Layer 3, 2 ch, ~128.00 kbps avg
Размер: 746.90 Mb ( 783 179 776 bytes ) 1/6 DVD

Описание расширенной версии

Мультфильм был восстановлен и заново смонтирован для повторного проката в кинотеатрах IMAX с 1 января 2002 года. Для этой версии анимационного фильма была переработана большая часть мультипликации, изменился порядок мизансцен, вырезанная песня «Снова станем людьми» («Human again») была вставлена во второй акт фильма, а также все оригинальные фрагменты фильма были переведены в новый цифровой формат, чтобы соответствовать высокой разрешающей способности формата IMAX. «Красавица и Чудовище: Специальный выпуск» («Beauty and the Beast: Special Edition») - так называется расширенная версия мультфильма.

MediaInfo

General
Complete name                            : C:\Users\Downloads\Encode\Krasavitsa_i_chudovische.1991.BDRip.[R.G.Tru].avi
Format                                   : AVI
Format/Info                              : Audio Video Interleave
File size                                : 747 MiB
Duration                                 : 1h 31mn
Overall bit rate                         : 1 138 Kbps
Movie name                               : Beauty and the Beast (1991) - BDRip by Juvelir
Writing application                      : VirtualDubMod 1.5.10.3 | www.virtualdub-fr.org || (build 2550/release)
Video
ID                                       : 0
Format                                   : MPEG-4 Visual
Format profile                           : Advanced Simple@L5
Format settings, BVOP                    : 1
Format settings, QPel                    : No
Format settings, GMC                     : No warppoints
Format settings, Matrix                  : Default (H.263)
Codec ID                                 : XVID
Codec ID/Hint                            : XviD
Duration                                 : 1h 31mn
Bit rate                                 : 1 002 Kbps
Width                                    : 624 pixels
Height                                   : 352 pixels
Display aspect ratio                     : 16:9
Frame rate                               : 23.976 fps
Color space                              : YUV
Chroma subsampling                       : 4:2:0
Bit depth                                : 8 bits
Scan type                                : Progressive
Compression mode                         : Lossy
Bits/(Pixel*Frame)                       : 0.190
Stream size                              : 657 MiB (88%)
Writing library                          : XviD 73
Audio
ID                                       : 1
Format                                   : MPEG Audio
Format version                           : Version 1
Format profile                           : Layer 3
Mode                                     : Joint stereo
Mode extension                           : MS Stereo
Codec ID                                 : 55
Codec ID/Hint                            : MP3
Duration                                 : 1h 31mn
Bit rate mode                            : Constant
Bit rate                                 : 128 Kbps
Channel(s)                               : 2 channels
Sampling rate                            : 48.0 KHz
Compression mode                         : Lossy
Stream size                              : 83.5 MiB (11%)
Alignment                                : Aligned on interleaves
Interleave, duration                     : 42 ms (1.01 video frame)
Interleave, preload duration             : 504 ms
Writing library                          : LAME3.99r
Encoding settings                        : -m j -V 4 -q 0 -lowpass 17 -b 128

Скриншоты



-
Показать сообщения:    

Текущее время: 23-Сен 20:45

Часовой пояс: UTC - 1


Вы не можете начинать темы
Вы не можете отвечать на сообщения
Вы не можете редактировать свои сообщения
Вы не можете удалять свои сообщения
Вы не можете голосовать в опросах
Вы не можете прикреплять файлы к сообщениям
Вы не можете скачивать файлы

!ВНИМАНИЕ!
Сайт не предоставляет электронные версии произведений, а занимается лишь коллекционированием и каталогизацией ссылок, присылаемых и публикуемых на форуме нашими читателями. Если вы являетесь правообладателем какого-либо представленного материала и не желаете, чтобы ссылка на него находилась в нашем каталоге, свяжитесь с нами, и мы незамедлительно удалим ее. Файлы для обмена на трекере предоставлены пользователями сайта, и администрация не несет ответственности за их содержание. Просьба не заливать файлы, защищенные авторскими правами, а также файлы нелегального содержания!