Важное объявление!
У Нас Все раздачи мультитрекерные, при нуле пиров в релизах, можете смело вставать на закачку!
 
Автор Сообщение

HUNTER

Стаж:
4 года 10 месяцев
Сообщений:
65462

Репутация: 101

[+] [-]
Вне форума [Профиль] [ЛС]

Красавица и чудовище: Чудесное Рождество / Beauty and the Beast: The Enchanted Christmas-
Страна: США, Канада
Жанр: мультфильм, фэнтези, семейный, музыка
Год выпуска: 1997
Продолжительность: 01:10:43
Перевод: Профессиональный (дублированный)
Субтитры: Нет-Режиссер: Эндрю Найт / Andrew Knight-Описание: Любовь Белл к чудовищу изменила все вокруг и теперь все заколдованные предметы в замке снова стали людьми, даже маленький Чип, некогда бывший всего лишь маленькой чашечкой. В свое первое Рождество, которое Чип встречает не как чашечка, а как мальчик, он просит маму рассказать, что же на самом деле случилось в замке прошлым Рождеством. Рождество - это время волшебства, но сильнее всего на свете оно в замке чудовища. Время тьмы и горя ушло навеки, но что способствовало этому?-Рейтинг:

MPAA: - Нет возрастных ограничений-Мировая премьера: 11 ноября 1997-Доп. информация:
Дубляж "Невафильм" из коллекции xfiles.-Релиз: -Качество: BDRip [Beauty.and.the.Beast.The.Enchanted.Christmas.1997.BDRemux.1080p.x264-xfiles.rutracker.mkv]
Формат: AVI
Видео: 656x368 (1.78:1), 23.976 fps, XviD build 65 ~1333 kbps avg, 0.23 bit/pixel
Аудио: 48 kHz, MPEG Layer 3, 2 ch, ~128.00 kbps avg
Субтитры: Отсутствуют
-

MI

Format : AVIFormat/Info : Audio Video InterleaveFile size : 744 MiBDuration : 1h 10mnOverall bit rate : 1 471 KbpsWriting application : VirtualDubMod 1.5.10.3 | www.virtualdub-fr.org || (build 2550/release)Writing library : VirtualDubMod build 2550/release
VideoID : 0Format : MPEG-4 VisualFormat profile : Advanced Simple@L5Format settings, BVOP : 2Format settings, QPel : NoFormat settings, GMC : No warppointsFormat settings, Matrix : CustomCodec ID : XVIDCodec ID/Hint : XviDDuration : 1h 10mnBit rate : 1 334 KbpsWidth : 656 pixelsHeight : 368 pixelsDisplay aspect ratio : 16:9Frame rate : 23.976 fpsColor space : YUVChroma subsampling : 4:2:0Bit depth : 8 bitsScan type : ProgressiveCompression mode : LossyBits/(Pixel*Frame) : 0.230Stream size : 675 MiB (91%)Writing library : XviD 65
AudioID : 1Format : MPEG AudioFormat version : Version 1Format profile : Layer 3Codec ID : 55Codec ID/Hint : MP3Duration : 1h 10mnBit rate mode : ConstantBit rate : 128 KbpsChannel count : 2 channelsSampling rate : 48.0 KHzCompression mode : LossyStream size : 64.7 MiB (9%)Alignment : Aligned on interleavesInterleave, duration : 42 ms (1.00 video frame)Interleave, preload duration : 504 msWriting library : LAME3.99rEncoding settings : -m s -V 4 -q 2 -lowpass 17 -b 128

_________________
Показать сообщения:    

Текущее время: Сегодня 20:41

Часовой пояс: GMT



Вы не можете начинать темы
Вы не можете отвечать на сообщения
Вы не можете редактировать свои сообщения
Вы не можете удалять свои сообщения
Вы не можете голосовать в опросах
Вы не можете прикреплять файлы к сообщениям
Вы не можете скачивать файлы