Ивановский Торрент трекер
Яндекс.Погода
 

[Цитировать]
HUNTER

Край (2010) Blu-Ray-- Страна: Россия
Жанр: Драма, Военный, История
Год выпуска: 2010
Продолжительность: 02:03:33-Перевод: Не требуется
Cубтитры: английские
Оригинальная аудиодорожка: Русский-Режиссер: Алeксей Учитeль-В ролях: Владимир Машков, Сергей Гармаш, Владас Багдонас, Александр Баширов, Юлия Пересильд, Анна Уколова, Семен Белоцерковский, Алексей Горбунов, Вячеслав Крикунов, Аньорка Штрехель
Описание: В августе 1945-го в далекий поселок с названием Крaй с войны возвращается бывший танкист Игнат, чья страсть - паровозы. Он узнает, что на уединенном острове с довоенных времен брошен немецкий паровоз, и принимается его восстанавливать. Но, оказывается, у паровоза уже есть имя - «Густав», и есть хозяйка - Эльза, дочь немецкого инженера, арестованного в начале войны. Да и для сельчан одержимый мечтой, свободный Игнат - чужак. Страсти закипают шекспировские, причем в них задействованы не только люди, но и несколько паровозов, почти живые существа, у каждого свое имя...-Доп. информация:
Премьера (мир): 9 сентября 2010
Премьера (РФ): 23 сентября 2010, «Централ Партнершип»
Релиз на DVD: 21 октября 2010, «Мистерия Звука», «Монолит»
Релиз на Blu-Ray: 21 октября 2010, «Мистерия Звука», «Монолит»-Бонусы: Документальный фильм - "Со съемок фильма"
Меню: присутствует- -Тип релиза: Blu-ray disc
Контейнер: BDMV-Видео: 1920x1080 / 23,976 fps / MPEG-4 / 29799 kbps
Аудио: LPCM Audio / 48 kHz / 16-bit / 4608 kbps

BDinfo

Disc Title: The.Edge.2010.BluRay.Rus.LPSM
Disc Size: 40 017 915 654 bytes
Protection: AACS
BD-Java: Yes
BDInfo: 0.5.4
Notes:
BDINFO HOME:
Cinema Squid
http://www.cinemasquid.com/blu-ray/tools/bdinfo
INCLUDES FORUMS REPORT FOR:
AVS Forum Blu-ray Audio and Video Specifications Thread
http://www.avsforum.com/avs-vb/showthread.php?t=1155731
********************
PLAYLIST: 00002.MPLS
********************
<--- BEGIN FORUMS PASTE --->
Код:
Total Video
Title Codec Length Movie Size Disc Size Bitrate Bitrate Main Audio Track Secondary Audio Track
----- ------ ------- -------------- -------------- ------- ------- ------------------ ---------------------
00002.MPLS AVC 2:03:33 33 658 951 680 40 017 915 654 36,32 30,00 LPCM 5.1 4608Kbps (48kHz/16-bit)
Код:
DISC INFO:
Disc Title: The.Edge.2010.BluRay.Rus.LPSM
Disc Size: 40 017 915 654 bytes
Protection: AACS
BD-Java: Yes
BDInfo: 0.5.4
PLAYLIST REPORT:
Name: 00002.MPLS
Length: 2:03:33 (h:m:s)
Size: 33 658 951 680 bytes
Total Bitrate: 36,32 Mbps
VIDEO:
Codec Bitrate Description
----- ------- -----------
MPEG-4 AVC Video 29999 kbps 1080p / 24 fps / 16:9 / High Profile 4.1
AUDIO:
Codec Language Bitrate Description
----- -------- ------- -----------
LPCM Audio Russian 4608 kbps 5.1 / 48 kHz / 4608 kbps / 16-bit
SUBTITLES:
Codec Language Bitrate Description
----- -------- ------- -----------
Presentation Graphics English 11,384 kbps
FILES:
Name Time In Length Size Total Bitrate
---- ------- ------ ---- -------------
00002.M2TS 0:00:00.000 2:03:33.416 33 658 951 680 36 322
CHAPTERS:
Number Time In Length Avg Video Rate Max 1-Sec Rate Max 1-Sec Time Max 5-Sec Rate Max 5-Sec Time Max 10Sec Rate Max 10Sec Time Avg Frame Size Max Frame Size Max Frame Time
------ ------- ------ -------------- -------------- -------------- -------------- -------------- -------------- -------------- -------------- -------------- --------------
1 0:00:00.000 2:03:33.416 29 999 kbps 48 135 kbps 00:47:26.291 33 819 kbps 00:47:23.875 31 866 kbps 00:43:31.250 156 246 bytes 938 326 bytes 00:36:28.625
STREAM DIAGNOSTICS:
File PID Type Codec Language Seconds Bitrate Bytes Packets
---- --- ---- ----- -------- -------------- -------------- ------------- -----
00002.M2TS 4113 (0x1011) 0x1B AVC 7413,292 30 000 27 799 581 686 151 191 197
00002.M2TS 4352 (0x1100) 0x80 LPCM rus (Russian) 7413,292 4 614 4 276 007 784 23 722 666
00002.M2TS 4608 (0x1200) 0x90 PGS eng (English) 7413,292 11 10 549 091 63 245
<---- END FORUMS PASTE ---->
QUICK SUMMARY:
Disc Title: The.Edge.2010.BluRay.Rus.LPSM
Disc Size: 40 017 915 654 bytes
Protection: AACS
BD-Java: Yes
Playlist: 00002.MPLS
Size: 33 658 951 680 bytes
Length: 2:03:33
Total Bitrate: 36,32 Mbps
Video: MPEG-4 AVC Video / 29999 kbps / 1080p / 24 fps / 16:9 / High Profile 4.1
Audio: Russian / LPCM Audio / 5.1 / 48 kHz / 4608 kbps / 16-bit
Subtitle: English / 11,384 kbps
********************
PLAYLIST: 01002.MPLS
********************
<--- BEGIN FORUMS PASTE --->
Код:
Total Video
Title Codec Length Movie Size Disc Size Bitrate Bitrate Main Audio Track Secondary Audio Track
----- ------ ------- -------------- -------------- ------- ------- ------------------ ---------------------
01002.MPLS AVC 2:03:33 33 658 951 680 40 017 915 654 36,32 30,00 LPCM 5.1 4608Kbps (48kHz/16-bit)
Код:
DISC INFO:
Disc Title: The.Edge.2010.BluRay.Rus.LPSM
Disc Size: 40 017 915 654 bytes
Protection: AACS
BD-Java: Yes
BDInfo: 0.5.4
PLAYLIST REPORT:
Name: 01002.MPLS
Length: 2:03:33 (h:m:s)
Size: 33 658 951 680 bytes
Total Bitrate: 36,32 Mbps
VIDEO:
Codec Bitrate Description
----- ------- -----------
MPEG-4 AVC Video 29999 kbps 1080p / 24 fps / 16:9 / High Profile 4.1
AUDIO:
Codec Language Bitrate Description
----- -------- ------- -----------
LPCM Audio Russian 4608 kbps 5.1 / 48 kHz / 4608 kbps / 16-bit
SUBTITLES:
Codec Language Bitrate Description
----- -------- ------- -----------
Presentation Graphics English 11,384 kbps
FILES:
Name Time In Length Size Total Bitrate
---- ------- ------ ---- -------------
00002.M2TS 0:00:00.000 2:03:33.416 33 658 951 680 36 322
CHAPTERS:
Number Time In Length Avg Video Rate Max 1-Sec Rate Max 1-Sec Time Max 5-Sec Rate Max 5-Sec Time Max 10Sec Rate Max 10Sec Time Avg Frame Size Max Frame Size Max Frame Time
------ ------- ------ -------------- -------------- -------------- -------------- -------------- -------------- -------------- -------------- -------------- --------------
1 0:00:00.000 0:09:48.375 29 997 kbps 46 352 kbps 00:06:16.250 33 281 kbps 00:06:12.291 31 643 kbps 00:06:12.500 156 221 bytes 764 762 bytes 00:06:16.500
2 0:09:48.375 0:09:56.416 30 014 kbps 45 115 kbps 00:14:16.500 32 918 kbps 00:14:13.333 31 566 kbps 00:18:41.833 156 325 bytes 733 906 bytes 00:19:44.791
3 0:19:44.791 0:11:13.625 30 011 kbps 46 090 kbps 00:23:38.041 33 245 kbps 00:24:31.000 31 732 kbps 00:24:26.708 156 305 bytes 847 219 bytes 00:26:49.166
4 0:30:58.416 0:09:47.291 29 999 kbps 45 564 kbps 00:36:28.333 33 568 kbps 00:36:25.875 31 568 kbps 00:40:09.125 156 245 bytes 938 326 bytes 00:36:28.625
5 0:40:45.708 0:09:05.291 29 984 kbps 48 135 kbps 00:47:26.291 33 819 kbps 00:47:23.875 31 866 kbps 00:43:31.250 156 169 bytes 919 279 bytes 00:47:26.583
6 0:49:51.000 0:08:40.208 29 985 kbps 41 742 kbps 00:50:36.583 32 510 kbps 00:53:06.666 31 476 kbps 00:51:09.500 156 173 bytes 679 596 bytes 00:51:18.750
7 0:58:31.208 0:12:06.708 30 000 kbps 41 042 kbps 01:00:43.500 32 658 kbps 01:00:41.041 31 348 kbps 01:03:57.750 156 248 bytes 811 833 bytes 01:00:43.750
8 1:10:37.916 0:09:39.250 30 012 kbps 42 007 kbps 01:13:51.833 32 568 kbps 01:12:47.916 31 596 kbps 01:13:44.375 156 314 bytes 760 793 bytes 01:12:52.166
9 1:20:17.166 0:10:28.833 29 988 kbps 42 924 kbps 01:27:33.875 32 935 kbps 01:28:17.916 31 400 kbps 01:28:17.541 156 187 bytes 644 209 bytes 01:24:26.000
10 1:30:46.000 0:08:38.000 30 000 kbps 42 094 kbps 01:37:06.875 32 414 kbps 01:36:59.291 31 514 kbps 01:37:37.875 156 248 bytes 568 747 bytes 01:36:19.708
11 1:39:24.000 0:07:40.541 30 019 kbps 41 038 kbps 01:44:30.083 32 839 kbps 01:44:26.875 31 382 kbps 01:44:22.583 156 346 bytes 692 208 bytes 01:44:30.333
12 1:47:04.541 0:16:28.875 29 990 kbps 39 957 kbps 01:55:33.666 32 621 kbps 01:55:31.750 31 492 kbps 01:52:08.541 156 202 bytes 637 824 bytes 01:55:33.708
STREAM DIAGNOSTICS:
File PID Type Codec Language Seconds Bitrate Bytes Packets
---- --- ---- ----- -------- -------------- -------------- ------------- -----
00002.M2TS 4113 (0x1011) 0x1B AVC 7413,292 30 000 27 799 581 686 151 191 197
00002.M2TS 4352 (0x1100) 0x80 LPCM rus (Russian) 7413,292 4 614 4 276 007 784 23 722 666
00002.M2TS 4608 (0x1200) 0x90 PGS eng (English) 7413,292 11 10 549 091 63 245
<---- END FORUMS PASTE ---->
QUICK SUMMARY:
Disc Title: The.Edge.2010.BluRay.Rus.LPSM
Disc Size: 40 017 915 654 bytes
Protection: AACS
BD-Java: Yes
Playlist: 01002.MPLS
Size: 33 658 951 680 bytes
Length: 2:03:33
Total Bitrate: 36,32 Mbps
Video: MPEG-4 AVC Video / 29999 kbps / 1080p / 24 fps / 16:9 / High Profile 4.1
Audio: Russian / LPCM Audio / 5.1 / 48 kHz / 4608 kbps / 16-bit
Subtitle: English / 11,384 kbps
********************
PLAYLIST: 00003.MPLS
********************
<--- BEGIN FORUMS PASTE --->
Код:
Total Video
Title Codec Length Movie Size Disc Size Bitrate Bitrate Main Audio Track Secondary Audio Track
----- ------ ------- -------------- -------------- ------- ------- ------------------ ---------------------
00003.MPLS AVC 0:30:45 6 079 653 888 40 017 915 654 26,36 24,90 DD AC3 2.0 256Kbps
Код:
DISC INFO:
Disc Title: The.Edge.2010.BluRay.Rus.LPSM
Disc Size: 40 017 915 654 bytes
Protection: AACS
BD-Java: Yes
BDInfo: 0.5.4
PLAYLIST REPORT:
Name: 00003.MPLS
Length: 0:30:45 (h:m:s)
Size: 6 079 653 888 bytes
Total Bitrate: 26,36 Mbps
VIDEO:
Codec Bitrate Description
----- ------- -----------
MPEG-4 AVC Video 24896 kbps 1080p / 24 fps / 16:9 / High Profile 4.1
AUDIO:
Codec Language Bitrate Description
----- -------- ------- -----------
Dolby Digital Audio Russian 256 kbps 2.0 / 48 kHz / 256 kbps
FILES:
Name Time In Length Size Total Bitrate
---- ------- ------ ---- -------------
00003.M2TS 0:00:00.000 0:30:45.375 6 079 653 888 26 356
CHAPTERS:
Number Time In Length Avg Video Rate Max 1-Sec Rate Max 1-Sec Time Max 5-Sec Rate Max 5-Sec Time Max 10Sec Rate Max 10Sec Time Avg Frame Size Max Frame Size Max Frame Time
------ ------- ------ -------------- -------------- -------------- -------------- -------------- -------------- -------------- -------------- -------------- --------------
1 0:00:00.000 0:30:45.375 24 896 kbps 47 657 kbps 00:14:24.291 40 590 kbps 00:05:37.291 37 520 kbps 00:04:09.749 129 670 bytes 415 081 bytes 00:04:44.083
STREAM DIAGNOSTICS:
File PID Type Codec Language Seconds Bitrate Bytes Packets
---- --- ---- ----- -------- -------------- -------------- ------------- -----
00003.M2TS 4113 (0x1011) 0x1B AVC 1845,208 24 898 5 742 817 774 31 236 851
00003.M2TS 4352 (0x1100) 0x81 AC3 rus (Russian) 1845,208 256 59 051 008 346 007
<---- END FORUMS PASTE ---->
QUICK SUMMARY:
Disc Title: The.Edge.2010.BluRay.Rus.LPSM
Disc Size: 40 017 915 654 bytes
Protection: AACS
BD-Java: Yes
Playlist: 00003.MPLS
Size: 6 079 653 888 bytes
Length: 0:30:45
Total Bitrate: 26,36 Mbps
Video: MPEG-4 AVC Video / 24896 kbps / 1080p / 24 fps / 16:9 / High Profile 4.1
Audio: Russian / Dolby Digital Audio / 2.0 / 48 kHz / 256 kbps
********************
PLAYLIST: 01003.MPLS
********************
<--- BEGIN FORUMS PASTE --->
Код:
Total Video
Title Codec Length Movie Size Disc Size Bitrate Bitrate Main Audio Track Secondary Audio Track
----- ------ ------- -------------- -------------- ------- ------- ------------------ ---------------------
01003.MPLS AVC 0:30:45 6 079 653 888 40 017 915 654 26,36 24,90 DD AC3 2.0 256Kbps
Код:
DISC INFO:
Disc Title: The.Edge.2010.BluRay.Rus.LPSM
Disc Size: 40 017 915 654 bytes
Protection: AACS
BD-Java: Yes
BDInfo: 0.5.4
PLAYLIST REPORT:
Name: 01003.MPLS
Length: 0:30:45 (h:m:s)
Size: 6 079 653 888 bytes
Total Bitrate: 26,36 Mbps
VIDEO:
Codec Bitrate Description
----- ------- -----------
MPEG-4 AVC Video 24896 kbps 1080p / 24 fps / 16:9 / High Profile 4.1
AUDIO:
Codec Language Bitrate Description
----- -------- ------- -----------
Dolby Digital Audio Russian 256 kbps 2.0 / 48 kHz / 256 kbps
FILES:
Name Time In Length Size Total Bitrate
---- ------- ------ ---- -------------
00003.M2TS 0:00:00.000 0:30:45.375 6 079 653 888 26 356
CHAPTERS:
Number Time In Length Avg Video Rate Max 1-Sec Rate Max 1-Sec Time Max 5-Sec Rate Max 5-Sec Time Max 10Sec Rate Max 10Sec Time Avg Frame Size Max Frame Size Max Frame Time
------ ------- ------ -------------- -------------- -------------- -------------- -------------- -------------- -------------- -------------- -------------- --------------
1 0:00:00.000 0:30:45.375 24 896 kbps 47 657 kbps 00:14:24.291 40 590 kbps 00:05:37.291 37 520 kbps 00:04:09.749 129 670 bytes 415 081 bytes 00:04:44.083
STREAM DIAGNOSTICS:
File PID Type Codec Language Seconds Bitrate Bytes Packets
---- --- ---- ----- -------- -------------- -------------- ------------- -----
00003.M2TS 4113 (0x1011) 0x1B AVC 1845,208 24 898 5 742 817 774 31 236 851
00003.M2TS 4352 (0x1100) 0x81 AC3 rus (Russian) 1845,208 256 59 051 008 346 007
<---- END FORUMS PASTE ---->
QUICK SUMMARY:
Disc Title: The.Edge.2010.BluRay.Rus.LPSM
Disc Size: 40 017 915 654 bytes
Protection: AACS
BD-Java: Yes
Playlist: 01003.MPLS
Size: 6 079 653 888 bytes
Length: 0:30:45
Total Bitrate: 26,36 Mbps
Video: MPEG-4 AVC Video / 24896 kbps / 1080p / 24 fps / 16:9 / High Profile 4.1
Audio: Russian / Dolby Digital Audio / 2.0 / 48 kHz / 256 kbps
********************
PLAYLIST: 00001.MPLS
********************
<--- BEGIN FORUMS PASTE --->
Код:
Total Video
Title Codec Length Movie Size Disc Size Bitrate Bitrate Main Audio Track Secondary Audio Track
----- ------ ------- -------------- -------------- ------- ------- ------------------ ---------------------
00001.MPLS AVC 0:01:00 237 225 984 40 017 915 654 31,63 29,95 DD AC3 2.0 256Kbps
Код:
DISC INFO:
Disc Title: The.Edge.2010.BluRay.Rus.LPSM
Disc Size: 40 017 915 654 bytes
Protection: AACS
BD-Java: Yes
BDInfo: 0.5.4
PLAYLIST REPORT:
Name: 00001.MPLS
Length: 0:01:00 (h:m:s)
Size: 237 225 984 bytes
Total Bitrate: 31,63 Mbps
VIDEO:
Codec Bitrate Description
----- ------- -----------
MPEG-4 AVC Video 29950 kbps 1080p / 24 fps / 16:9 / High Profile 4.1
AUDIO:
Codec Language Bitrate Description
----- -------- ------- -----------
Dolby Digital Audio Russian 256 kbps 2.0 / 48 kHz / 256 kbps
FILES:
Name Time In Length Size Total Bitrate
---- ------- ------ ---- -------------
00001.M2TS 0:00:00.000 0:01:00.000 237 225 984 31 630
CHAPTERS:
Number Time In Length Avg Video Rate Max 1-Sec Rate Max 1-Sec Time Max 5-Sec Rate Max 5-Sec Time Max 10Sec Rate Max 10Sec Time Avg Frame Size Max Frame Size Max Frame Time
------ ------- ------ -------------- -------------- -------------- -------------- -------------- -------------- -------------- -------------- -------------- --------------
1 0:00:00.000 0:01:00.000 29 950 kbps 47 058 kbps 00:00:02.750 33 217 kbps 00:00:01.249 31 680 kbps 00:00:01.250 155 988 bytes 944 540 bytes 00:00:00.750
STREAM DIAGNOSTICS:
File PID Type Codec Language Seconds Bitrate Bytes Packets
---- --- ---- ----- -------- -------------- -------------- ------------- -----
00001.M2TS 4113 (0x1011) 0x1B AVC 59,875 30 012 224 622 150 1 221 617
00001.M2TS 4352 (0x1100) 0x81 AC3 rus (Russian) 59,875 257 1 920 000 11 250
<---- END FORUMS PASTE ---->
QUICK SUMMARY:
Disc Title: The.Edge.2010.BluRay.Rus.LPSM
Disc Size: 40 017 915 654 bytes
Protection: AACS
BD-Java: Yes
Playlist: 00001.MPLS
Size: 237 225 984 bytes
Length: 0:01:00
Total Bitrate: 31,63 Mbps
Video: MPEG-4 AVC Video / 29950 kbps / 1080p / 24 fps / 16:9 / High Profile 4.1
Audio: Russian / Dolby Digital Audio / 2.0 / 48 kHz / 256 kbps
********************
PLAYLIST: 01001.MPLS
********************
<--- BEGIN FORUMS PASTE --->
Код:
Total Video
Title Codec Length Movie Size Disc Size Bitrate Bitrate Main Audio Track Secondary Audio Track
----- ------ ------- -------------- -------------- ------- ------- ------------------ ---------------------
01001.MPLS AVC 0:01:00 237 225 984 40 017 915 654 31,63 29,95 DD AC3 2.0 256Kbps
Код:
DISC INFO:
Disc Title: The.Edge.2010.BluRay.Rus.LPSM
Disc Size: 40 017 915 654 bytes
Protection: AACS
BD-Java: Yes
BDInfo: 0.5.4
PLAYLIST REPORT:
Name: 01001.MPLS
Length: 0:01:00 (h:m:s)
Size: 237 225 984 bytes
Total Bitrate: 31,63 Mbps
VIDEO:
Codec Bitrate Description
----- ------- -----------
MPEG-4 AVC Video 29950 kbps 1080p / 24 fps / 16:9 / High Profile 4.1
AUDIO:
Codec Language Bitrate Description
----- -------- ------- -----------
Dolby Digital Audio Russian 256 kbps 2.0 / 48 kHz / 256 kbps
FILES:
Name Time In Length Size Total Bitrate
---- ------- ------ ---- -------------
00001.M2TS 0:00:00.000 0:01:00.000 237 225 984 31 630
CHAPTERS:
Number Time In Length Avg Video Rate Max 1-Sec Rate Max 1-Sec Time Max 5-Sec Rate Max 5-Sec Time Max 10Sec Rate Max 10Sec Time Avg Frame Size Max Frame Size Max Frame Time
------ ------- ------ -------------- -------------- -------------- -------------- -------------- -------------- -------------- -------------- -------------- --------------
1 0:00:00.000 0:00:02.291 32 764 kbps 37 761 kbps 00:00:01.250 0 kbps 00:00:00.000 0 kbps 00:00:00.000 167 599 bytes 944 540 bytes 00:00:00.750
2 0:00:02.291 0:00:55.500 30 004 kbps 47 058 kbps 00:00:02.750 32 287 kbps 00:00:02.499 31 020 kbps 00:00:02.750 156 270 bytes 929 151 bytes 00:00:03.000
3 0:00:57.791 0:00:02.208 25 667 kbps 35 904 kbps 00:00:58.208 0 kbps 00:00:00.000 0 kbps 00:00:00.000 136 251 bytes 925 067 bytes 00:00:58.500
STREAM DIAGNOSTICS:
File PID Type Codec Language Seconds Bitrate Bytes Packets
---- --- ---- ----- -------- -------------- -------------- ------------- -----
00001.M2TS 4113 (0x1011) 0x1B AVC 59,875 30 012 224 622 150 1 221 617
00001.M2TS 4352 (0x1100) 0x81 AC3 rus (Russian) 59,875 257 1 920 000 11 250
<---- END FORUMS PASTE ---->
QUICK SUMMARY:
Disc Title: The.Edge.2010.BluRay.Rus.LPSM
Disc Size: 40 017 915 654 bytes
Protection: AACS
BD-Java: Yes
Playlist: 01001.MPLS
Size: 237 225 984 bytes
Length: 0:01:00
Total Bitrate: 31,63 Mbps
Video: MPEG-4 AVC Video / 29950 kbps / 1080p / 24 fps / 16:9 / High Profile 4.1
Audio: Russian / Dolby Digital Audio / 2.0 / 48 kHz / 256 kbps

Скриншоты меню

Скриншоты

Screens:


Показать сообщения:    

Текущее время: 13-Дек 03:22

Часовой пояс: UTC ± 0


Вы не можете начинать темы
Вы не можете отвечать на сообщения
Вы не можете редактировать свои сообщения
Вы не можете удалять свои сообщения
Вы не можете голосовать в опросах
Вы не можете прикреплять файлы к сообщениям
Вы не можете скачивать файлы

!ВНИМАНИЕ!
Сайт не предоставляет электронные версии произведений, а занимается лишь коллекционированием и каталогизацией ссылок, присылаемых и публикуемых на форуме нашими читателями. Если вы являетесь правообладателем какого-либо представленного материала и не желаете, чтобы ссылка на него находилась в нашем каталоге, свяжитесь с нами, и мы незамедлительно удалим ее. Файлы для обмена на трекере предоставлены пользователями сайта, и администрация не несет ответственности за их содержание. Просьба не заливать файлы, защищенные авторскими правами, а также файлы нелегального содержания!