Важное объявление!
У Нас Все раздачи мультитрекерные, при нуле пиров в релизах, можете смело вставать на закачку!
Статистика раздачи
Размер:     |    Зарегистрирован:     |    Скачан:     |   
Нет
 
     
 
 
Автор Сообщение

HUNTER

Стаж:
5 лет
Сообщений:
67947

Репутация: 101

[+] [-]
Вне форума [Профиль] [ЛС]

Край
Страна: Россия
Жанр: Драма, военный, история
Год выпуска: 2010
Продолжительность: 02:03:33
Перевод: Не требуется
Русские субтитры:: нет
Cубтитры: английские
Оригинальная аудиодорожка: русский
Режиссер: Алeксей Учитeль
В ролях: Владимир Машков, Сергей Гармаш, Владас Багдонас, Александр Баширов, Юлия Пересильд, Анна Уколова, Семен Белоцерковский, Алексей Горбунов, Вячеслав Крикунов, Аньорка Штрехель
Описание: В августе 1945-го в далекий поселок с названием Крaй с войны возвращается бывший танкист Игнат, чья страсть - паровозы. Он узнает, что на уединенном острове с довоенных времен брошен немецкий паровоз, и принимается его восстанавливать. Но, оказывается, у паровоза уже есть имя - «Густав», и есть хозяйка - Эльза, дочь немецкого инженера, арестованного в начале войны. Да и для сельчан одержимый мечтой, свободный Игнат - чужак. Страсти закипают шекспировские, причем в них задействованы не только люди, но и несколько паровозов, почти живые существа, у каждого свое имя...
Релиз:
Тип релиза: BDRip 1080p
Контейнер: MKV
Видео: MPEG-4 AVC,1920x1080 at 24.000 fps 11.9 Mbps
Аудио: Русский, DTS 6 ch, 48,0 kHz, 1510 Кбит/с
Субтитры: Английские softsub (SRT)

MediaInfo

General
Complete name : The Edge.2010.x264.BDRip1080p.mkv
Format : Matroska
File size : 11.6 GiB
Duration : 2h 3mn
Overall bit rate : 13.5 Mbps
Encoded date : UTC 2011-02-17 20:49:18
Writing application : mkvmerge v4.4.0 ('Die Wiederkehr') built on Oct 31 2010 21:52:48
Writing library : libebml v1.0.0 + libmatroska v1.0.0
Video
ID : 1
Format : AVC
Format/Info : Advanced Video Codec
Format profile : High@L4.1
Format settings, CABAC : Yes
Format settings, ReFrames : 4 frames
Muxing mode : Container profile=Unknown@4.1
Codec ID : V_MPEG4/ISO/AVC
Duration : 2h 3mn
Bit rate : 11.9 Mbps
Width : 1 920 pixels
Height : 1 080 pixels
Display aspect ratio : 16:9
Frame rate : 24.000 fps
Color space : YUV
Chroma subsampling : 4:2:0
Bit depth : 8 bits
Scan type : Progressive
Bits/(Pixel*Frame) : 0.240
Stream size : 10.1 GiB (87%)
Title : BDA
Writing library : x264 core 98 r1649 c54c47d
Encoding settings : cabac=1 / ref=4 / deblock=1:-3:-3 / analyse=0x3:0x133 / me=umh / subme=9 / psy=1 / psy_rd=1.00:0.00 / mixed_ref=1 / me_range=20 / chroma_me=1 / trellis=2 / 8x8dct=1 / cqm=0 / deadzone=21,11 / fast_pskip=1 / chroma_qp_offset=-2 / threads=6 / sliced_threads=0 / nr=0 / decimate=1 / interlaced=0 / constrained_intra=0 / bframes=3 / b_pyramid=0 / b_adapt=2 / b_bias=0 / direct=3 / weightb=1 / weightp=2 / keyint=250 / keyint_min=25 / scenecut=40 / intra_refresh=0 / rc_lookahead=50 / rc=2pass / mbtree=1 / bitrate=11940 / ratetol=1.0 / qcomp=0.60 / qpmin=10 / qpmax=51 / qpstep=4 / cplxblur=20.0 / qblur=0.5 / vbv_maxrate=50000 / vbv_bufsize=50000 / ip_ratio=1.40 / aq=1:1.00 / nal_hrd=none
Audio
ID : 2
Format : DTS
Format/Info : Digital Theater Systems
Codec ID : A_DTS
Duration : 2h 3mn
Bit rate mode : Constant
Bit rate : 1 510 Kbps
Channel(s) : 6 channels
Channel positions : Front: L C R, Side: L R, LFE
Sampling rate : 48.0 KHz
Bit depth : 24 bits
Stream size : 1.30 GiB (11%)
Language : Russian
Text
ID : 3
Format : UTF-8
Codec ID : S_TEXT/UTF8
Codec ID/Info : UTF-8 Plain Text
Language : English
Menu
00:00:00.000 : en:00:00:00.000
00:09:48.375 : en:00:09:48.375
00:19:44.792 : en:00:19:44.792
00:30:58.417 : en:00:30:58.417
00:40:45.708 : en:00:40:45.708
00:49:51.000 : en:00:49:51.000
00:58:31.208 : en:00:58:31.208
01:10:37.917 : en:01:10:37.917
01:20:17.167 : en:01:20:17.167
01:30:46.000 : en:01:30:46.000
01:39:24.000 : en:01:39:24.000
01:47:04.542 : en:01:47:04.542

x264

-[Information] Log for job2 (video, The Edge.2010.x264.BDRip1080p.avs -> The Edge.2010.x264.BDRip1080p.mkv)
--[Information] [17.02.2011 2:57:35] Started handling job
--[Information] [17.02.2011 2:57:35] Preprocessing
--[NoImage] Job commandline: "C:\Program Files\MeGUI\tools\x264\x264.exe" --level 4.1 --preset slower --pass 2 --bitrate 11940 --stats "D:\Видео\Крaй (The Edge)(2010)\The Edge.2010.x264.BDRip1080p.stats" --deblock -3:-3 --b-pyramid none --ref 4 --vbv-bufsize 50000 --vbv-maxrate 50000 --merange 20 --sar 1:1 --output "D:\Видео\Крaй (The Edge)(2010)\The Edge.2010.x264.BDRip1080p.mkv" "D:\Видео\Крaй (The Edge)(2010)\The Edge.2010.x264.BDRip1080p.avs"
--[Information] [17.02.2011 2:57:36] Encoding started
--[NoImage] Standard output stream
--[NoImage] Standard error stream
---[NoImage] avs [info]: 1920x1080p 1:1 @ 10000000/416667 fps (cfr)
---[NoImage] x264 [info]: using SAR=1/1
---[NoImage] x264 [info]: using cpu capabilities: MMX2 SSE2Fast SSSE3 FastShuffle SSE4.2
---[NoImage] x264 [warning]: direct=auto not used on the first pass
---[NoImage] x264 [info]: profile High, level 4.1
---[NoImage]
---[NoImage] x264 [info]: frame I:912 Avg QP:20.41 size:160359
---[NoImage] x264 [info]: frame P:66265 Avg QP:21.63 size: 78977
---[NoImage] x264 [info]: frame B:110744 Avg QP:22.90 size: 51347
---[NoImage] x264 [info]: consecutive B-frames: 3.3% 17.6% 66.4% 12.6%
---[NoImage] x264 [info]: mb I I16..4: 23.3% 70.9% 5.8%
---[NoImage] x264 [info]: mb P I16..4: 15.7% 23.3% 1.9% P16..4: 35.2% 10.2% 2.0% 0.1% 0.1% skip:11.6%
---[NoImage] x264 [info]: mb B I16..4: 4.5% 9.5% 0.4% B16..8: 45.0% 9.3% 1.8% direct: 8.3% skip:21.1% L0:43.7% L1:43.7% BI:12.6%
---[NoImage] x264 [info]: 8x8 transform intra:60.5% inter:70.8%
---[NoImage] x264 [info]: direct mvs spatial:0.0% temporal:100.0%
---[NoImage] x264 [info]: coded y,uvDC,uvAC intra: 77.9% 38.2% 5.7% inter: 37.2% 28.0% 0.3%
---[NoImage] x264 [info]: i16 v,h,dc,p: 20% 12% 34% 33%
---[NoImage] x264 [info]: i8 v,h,dc,ddl,ddr,vr,hd,vl,hu: 9% 9% 15% 9% 12% 11% 12% 10% 13%
---[NoImage] x264 [info]: i4 v,h,dc,ddl,ddr,vr,hd,vl,hu: 10% 10% 11% 9% 13% 11% 13% 9% 15%
---[NoImage] x264 [info]: i8c dc,h,v,p: 57% 21% 17% 6%
---[NoImage] x264 [info]: Weighted P-Frames: Y:5.0%
---[NoImage] x264 [info]: ref P L0: 52.5% 11.6% 18.3% 10.4% 7.0% 0.2%
---[NoImage] x264 [info]: ref B L0: 77.4% 14.0% 8.6%
---[NoImage] x264 [info]: kb/s:11941.73
---[NoImage] encoded 177921 frames, 3.04 fps, 11941.73 kb/s
--[Information] Final statistics
---[NoImage] Video Bitrate Desired: 11940 kbit/s
---[NoImage] Video Bitrate Obtained (approximate): 11943 kbit/s
--[Information] [17.02.2011 19:14:35] Postprocessing
--[Information] [17.02.2011 19:14:35] Job completed

Скриншоты



_________________
Показать сообщения:    

Текущее время: Сегодня 10:53

Часовой пояс: GMT



Вы не можете начинать темы
Вы не можете отвечать на сообщения
Вы не можете редактировать свои сообщения
Вы не можете удалять свои сообщения
Вы не можете голосовать в опросах
Вы не можете прикреплять файлы к сообщениям
Вы не можете скачивать файлы