Ивановский Торрент трекер
Яндекс.Погода
 

[Цитировать]
HUNTER

Кошка на раскаленной крыше / Cat on a Hot Tin Roof- Год выпуска: 1958
Страна: США
Жанр: драма
Продолжительность: 01:48:04
Перевод 1: Профессиональный (многоголосый закадровый) R5
Перевод 2: Профессиональный (многоголосый закадровый) SomeWax
Перевод 3: Авторский (одноголосый закадровый) Василий Горчаков
Оригинальная аудиодорожка: Английская
Cубтитры: Русские (НуПогоди, R5, SomeWax), английские (полные, для слабослышащих), французские-Режиссер: Ричард Брукс / Richard Brooks
В ролях: Элизабет Тейлор, Пол Ньюман, Берл Айвз, Джек Карсон, Джудит Андерсон, Мадлен Шервуд, Ларри Гейтс, Вон Тейлор, Зельда Кливер, Брайан Коркоран-Описание:
По мотивам одноименной пьесы Теннесси Уильямса.
Богатый престарелый южанин узнает, что скоро должен умереть. Все члены его жадной семьи, за исключением шалопая-сына, лезут из кожи вон, лишь бы получить наследство.-За русские дорожки спасибо IDDQD, oleg-k и PUNCHLINE79797
| | Сэмпл-Качество: BDRemux 1080p (Cat.on.a.Hot.Tin.Roof.1958.COMPLETE.BLURAY-COASTER)
Контейнер: MKV
Видео: AVC, 1920x1080 (1.78:1), 23.976 fps, 34924 kbps
Аудио 1: Русский AC3 2.0, 48 kHz, 192 kbps — R5
Аудио 2: Русский AC3 2.0, 48 kHz, 192 kbps — SomeWax
Аудио 3: Русский AC3 2.0, 48 kHz, 192 kbps — Горчаков
Аудио 4: Английский DTS-HD MA 2.0, 48 kHz, 1782 kbps, 24-bit (DTS Core: 2.0, 48 kHz, 1509 kbps, 24-bit)
Аудио 5: Английский AC3 2.0, 48 kHz, 192 kbps — Комментарии
Формат субтитров: softsub (SRT)

Скриншоты


MI

General
Unique ID : 220679715489050863187182700725041485651 (0xA6055E01FE64F65692A1F9E385B9D753)
Complete name : Cat.on.a.Hot.Tin.Roof.1958.1080p.BDRemux.mkv
Format : Matroska
Format version : Version 2
File size : 28.3 GiB
Duration : 1 h 48 min
Overall bit rate mode : Variable
Overall bit rate : 37.5 Mb/s
Movie name : Cat on a Hot Tin Roof / Кошка на раскаленной крыше (1958) – RuTracker
Encoded date : UTC 2016-08-15 16:47:26
Writing application : mkvmerge v9.3.1 ('Mask Machine') 64bit
Writing library : libebml v1.3.4 + libmatroska v1.4.5
Cover : Yes
Attachments : cover.jpg
Video
ID : 1
Format : AVC
Format/Info : Advanced Video Codec
Format profile : High@L4.1
Format settings, CABAC : Yes
Format settings, ReFrames : 2 frames
Format settings, GOP : M=1, N=10
Codec ID : V_MPEG4/ISO/AVC
Duration : 1 h 48 min
Bit rate mode : Variable
Width : 1 920 pixels
Height : 1 080 pixels
Display aspect ratio : 16:9
Frame rate mode : Constant
Frame rate : 23.976 (24000/1001) FPS
Color space : YUV
Chroma subsampling : 4:2:0
Bit depth : 8 bits
Scan type : Progressive
Title : Cat.on.a.Hot.Tin.Roof.1958.COMPLETE.BLURAY-COASTER
Language : English
Default : Yes
Forced : No
Audio #1
ID : 2
Format : AC-3
Format/Info : Audio Coding 3
Mode extension : CM (complete main)
Format settings, Endianness : Big
Codec ID : A_AC3
Duration : 1 h 48 min
Bit rate mode : Constant
Bit rate : 192 kb/s
Channel(s) : 2 channels
Channel positions : Front: L R
Sampling rate : 48.0 kHz
Frame rate : 31.250 FPS (1536 spf)
Compression mode : Lossy
Stream size : 148 MiB (1%)
Title : MVO – R5
Language : Russian
Default : Yes
Forced : No
Audio #2
ID : 3
Format : AC-3
Format/Info : Audio Coding 3
Mode extension : CM (complete main)
Format settings, Endianness : Big
Codec ID : A_AC3
Duration : 1 h 48 min
Bit rate mode : Constant
Bit rate : 192 kb/s
Channel(s) : 2 channels
Channel positions : Front: L R
Sampling rate : 48.0 kHz
Frame rate : 31.250 FPS (1536 spf)
Compression mode : Lossy
Stream size : 148 MiB (1%)
Title : MVO – SomeWax
Language : Russian
Default : No
Forced : No
Audio #3
ID : 4
Format : AC-3
Format/Info : Audio Coding 3
Mode extension : CM (complete main)
Format settings, Endianness : Big
Codec ID : A_AC3
Duration : 1 h 48 min
Bit rate mode : Constant
Bit rate : 192 kb/s
Channel(s) : 2 channels
Channel positions : Front: L R
Sampling rate : 48.0 kHz
Frame rate : 31.250 FPS (1536 spf)
Compression mode : Lossy
Stream size : 148 MiB (1%)
Title : AVO – В. Горчаков
Language : Russian
Default : No
Forced : No
Audio #4
ID : 5
Format : DTS
Format/Info : Digital Theater Systems
Format profile : MA / Core
Mode : 16
Format settings, Endianness : Big
Codec ID : A_DTS
Duration : 1 h 48 min
Bit rate mode : Variable / Constant
Bit rate : Unknown / 1 509 kb/s
Channel(s) : 2 channels
Channel positions : Front: L R
Sampling rate : 48.0 kHz
Frame rate : 93.750 FPS (512 spf)
Bit depth : 24 bits
Compression mode : Lossless / Lossy
Title : Original
Language : English
Default : No
Forced : No
Audio #5
ID : 6
Format : AC-3
Format/Info : Audio Coding 3
Mode extension : CM (complete main)
Format settings, Endianness : Big
Codec ID : A_AC3
Duration : 1 h 48 min
Bit rate mode : Constant
Bit rate : 192 kb/s
Channel(s) : 2 channels
Channel positions : Front: L R
Sampling rate : 48.0 kHz
Frame rate : 31.250 FPS (1536 spf)
Compression mode : Lossy
Stream size : 148 MiB (1%)
Title : Commentary by biographer Donald Spoto
Language : English
Default : No
Forced : No
Text #1
ID : 7
Format : UTF-8
Codec ID : S_TEXT/UTF8
Codec ID/Info : UTF-8 Plain Text
Title : НуПогоди
Language : Russian
Default : No
Forced : No
Text #2
ID : 8
Format : UTF-8
Codec ID : S_TEXT/UTF8
Codec ID/Info : UTF-8 Plain Text
Title : R5
Language : Russian
Default : No
Forced : No
Text #3
ID : 9
Format : UTF-8
Codec ID : S_TEXT/UTF8
Codec ID/Info : UTF-8 Plain Text
Title : SomeWax
Language : Russian
Default : No
Forced : No
Text #4
ID : 10
Format : UTF-8
Codec ID : S_TEXT/UTF8
Codec ID/Info : UTF-8 Plain Text
Language : English
Default : No
Forced : No
Text #5
ID : 11
Format : UTF-8
Codec ID : S_TEXT/UTF8
Codec ID/Info : UTF-8 Plain Text
Title : SDH
Language : English
Default : No
Forced : No
Text #6
ID : 12
Format : UTF-8
Codec ID : S_TEXT/UTF8
Codec ID/Info : UTF-8 Plain Text
Language : French
Default : No
Forced : No
Menu
00:00:00.000 : en:01. Credits
00:01:53.989 : en:02. Bad Behavior
00:05:01.384 : en:03. Report on the No-Necks
00:09:32.739 : en:04. Cat on a Hot Tin Roof
00:13:58.713 : en:05. Big Daddy's Return
00:18:51.797 : en:06. Same Cage
00:23:12.141 : en:07. Where the Rocks Are
00:26:46.355 : en:08. What Kind of Truth?
00:30:56.855 : en:09. Maggie the Cat is Alive
00:38:26.429 : en:10. The Party Comes to Brick
00:42:54.989 : en:11. Breaking Mama's Heart
00:45:21.510 : en:12. Talking Tough with Brick
00:50:43.749 : en:13. Disgust and Mendacity
00:55:10.599 : en:14. About Skipper
00:57:52.761 : en:15. Play by Play
01:03:55.331 : en:16. "I Let Him Down"
01:07:51.276 : en:17. Exchange of Truths
01:11:57.396 : en:18. Family Discussion
01:16:31.420 : en:19. "I Want Brick"
01:19:41.694 : en:20. Presence of Malice
01:24:45.539 : en:21. Cellar Full of Things
01:31:32.570 : en:22. Look at Me
01:35:37.440 : en:23. Big Daddy's Daddy
01:38:30.279 : en:24. The Storm Inside
01:43:21.070 : en:25. Maggie's Present
01:46:43.355 : en:26. Through with Lies


Показать сообщения:    

Текущее время: 15-Дек 08:31

Часовой пояс: UTC ± 0


Вы не можете начинать темы
Вы не можете отвечать на сообщения
Вы не можете редактировать свои сообщения
Вы не можете удалять свои сообщения
Вы не можете голосовать в опросах
Вы не можете прикреплять файлы к сообщениям
Вы не можете скачивать файлы

!ВНИМАНИЕ!
Сайт не предоставляет электронные версии произведений, а занимается лишь коллекционированием и каталогизацией ссылок, присылаемых и публикуемых на форуме нашими читателями. Если вы являетесь правообладателем какого-либо представленного материала и не желаете, чтобы ссылка на него находилась в нашем каталоге, свяжитесь с нами, и мы незамедлительно удалим ее. Файлы для обмена на трекере предоставлены пользователями сайта, и администрация не несет ответственности за их содержание. Просьба не заливать файлы, защищенные авторскими правами, а также файлы нелегального содержания!