Кошачья благодарность / Возвращение кота / Neko no Ongaeshi / The Cat Returns (Хироюки Морита) [Movie] [Без хардсаба] [RUS(ext), JAP+SUB] [2002 г., приключения, сказка, BDRip] [1080p] :: Ивановский Торрент трекер
Важное объявление!
У Нас Все раздачи мультитрекерные, при нуле пиров в релизах, можете смело вставать на закачку!
Статистика раздачи
Размер:     |    Зарегистрирован:     |    Скачан:     |   
Нет
 
     
 
 
Автор Сообщение

HUNTER

Стаж:
4 года 11 месяцев
Сообщений:
66112

Репутация: 101

[+] [-]
Вне форума [Профиль] [ЛС]

Кошачья благодарность / Возвращение кота
The Cat Returns / Neko no Ongaeshi / 猫の恩返し
-
Страна: Япония
Год выпуска: 2002 г.
Жанр: приключения, сказка
Тип: полнометражный фильм
Продолжительность: 75 мин.-Режиссер: Хироюки Морита
Студия: -Перевод:
  • русские субтитры [Киномания] (в составе контейнера)
  • русские субтитры [Narsus, Centaur & Лэн] (в составе контейнера)
  • русские субтитры [вАСИЛИЙ тАПОЧКИН] (в составе контейнера)
  • английские субтитры (в составе контейнера)
  • японские субтитры (в составе контейнера)
Озвучка:
  • многоголосая закадровая [CP/Киномания] (внешним файлом)
  • одноголосая закадровая [Артем Толстобров] (внешним файлом)
-Описание: В разгар дня на оживленной улице юная Хару храбро выхватывает из-под колес грузовика очаровательного кота. К ее великому удивлению, кот встает на задние лапки и благодарит Хару на человеческом языке. Оказывается, перед ней принц из загадочного Кошачьего царства, и теперь могущественный Кошачий царь хочет женить его на отважной спасительнице. Вскоре он похищает Хару, которая вовсе не желает быть кошачьей принцессой, и только верные усатые и хвостатые друзья - толстый бродяга Мьюта и великолепный Барон смогут вызволить ее из кошачьего плена. Впереди их ждут неожиданные встречи и самые невероятные приключения в неведомом Царстве Кошек. Сумеет ли Хару найти дорогу домой?
© World Art-Качество: BDRip
Тип релиза: Без хардсаба
Формат видео: MKV
Наличие линковки: Нет
Релиз/Автор рипа: CHD (hahay0yo)
Видео: x264, 8bit, 1920x1038, 10.1 Mbps, 23.976fps
Аудио RUS #1: (внешняя) AC3, 6 ch, 448кбит/с, 48000Hz - Киномания
Аудио RUS #2: (внешняя) AC3, 2 ch, 192кбит/с, 48000Hz - Артем Толстобров
Аудио JPN #1: (в составе контейнера) DTS, 6 ch, 1 510кбит/с, 48000Hz, 24bit
Аудио JPN #2: (внешняя) DTS-HD MA, 6ch, 4 098 Kbps, 48000Hz, 24bit-

Подробные тех. данные

GeneralUnique ID : 174333351856716548001724273770304812270 (0x832761DC182D4C78AE7386C2210AB4EE)Complete name : path_removed\The.Cat.Returns.2002.BluRay.1080p.DTS.x264-CHD.mkvFormat : MatroskaFormat version : Version 2File size : 6.10 GiBDuration : 1h 15mnOverall bit rate : 11.6 MbpsMovie name : The.Cat.Returns.2002.BluRay.1080p.DTS.4Audio.x264-CHDEncoded date : UTC 2014-02-16 06:53:32Writing application : mkvmerge v4.0.0 ('The Stars were mine') built on Jun 6 2010 16:18:42Writing library : libebml v1.0.0 + libmatroska v1.0.0
VideoID : 1Format : AVCFormat/Info : Advanced Video CodecFormat profile : High@L4.1Format settings, CABAC : YesFormat settings, ReFrames : 4 framesCodec ID : V_MPEG4/ISO/AVCDuration : 1h 15mnBit rate : 10.1 MbpsWidth : 1 920 pixelsHeight : 1 038 pixelsDisplay aspect ratio : 1.850Frame rate : 23.976 fpsColor space : YUVChroma subsampling : 4:2:0Bit depth : 8 bitsScan type : ProgressiveBits/(Pixel*Frame) : 0.212Stream size : 5.19 GiB (85%)Title : hahay0yo@CHDWriting library : x264 core 138 r2358 9e941d1Encoding settings : cabac=1 / ref=4 / deblock=1:-3:-3 / analyse=0x3:0x113 / me=umh / subme=10 / psy=1 / psy_rd=1.10:0.10 / mixed_ref=1 / me_range=32 / chroma_me=1 / trellis=2 / 8x8dct=1 / cqm=0 / deadzone=21,11 / fast_pskip=0 / chroma_qp_offset=-2 / threads=12 / lookahead_threads=1 / sliced_threads=0 / nr=0 / decimate=1 / interlaced=0 / bluray_compat=0 / constrained_intra=0 / bframes=6 / b_pyramid=2 / b_adapt=2 / b_bias=0 / direct=3 / weightb=1 / open_gop=0 / weightp=2 / keyint=250 / keyint_min=23 / scenecut=40 / intra_refresh=0 / rc=2pass / mbtree=0 / bitrate=10113 / ratetol=2.0 / qcomp=0.70 / qpmin=0 / qpmax=69 / qpstep=4 / cplxblur=20.0 / qblur=0.5 / ip_ratio=1.40 / pb_ratio=1.30 / aq=2:1.00Language : Korean
AudioID : 2Format : DTSFormat/Info : Digital Theater SystemsCodec ID : A_DTSDuration : 1h 15mnBit rate mode : ConstantBit rate : 1 510 KbpsChannel(s) : 6 channelsChannel positions : Front: L C R, Side: L R, LFESampling rate : 48.0 KHzBit depth : 24 bitsCompression mode : LossyDelay relative to video : 11msStream size : 811 MiB (13%)Title : Japanese DTS 5.1 1509KbpsLanguage : Japanese
Text #1ID : 3Format : ASSCodec ID : S_TEXT/ASSCodec ID/Info : Advanced Sub Station AlphaCompression mode : LosslessTitle : English styledLanguage : English
Text #2ID : 4Format : UTF-8Codec ID : S_TEXT/UTF8Codec ID/Info : UTF-8 Plain TextTitle : JapaneseLanguage : Japanese
Text #3ID : 5Format : UTF-8Codec ID : S_TEXT/UTF8Codec ID/Info : UTF-8 Plain TextTitle : Narsus, Centaur & ЛэнLanguage : Russian
Text #4ID : 6Format : UTF-8Codec ID : S_TEXT/UTF8Codec ID/Info : UTF-8 Plain TextTitle : вАСИЛИЙ тАПОЧКИНLanguage : Russian
Text #5ID : 7Format : UTF-8Codec ID : S_TEXT/UTF8Codec ID/Info : UTF-8 Plain TextTitle : КиноманияLanguage : Russian
Menu00:00:00.000 : en:00:00:00.00000:06:08.702 : en:00:06:08.70200:12:05.767 : en:00:12:05.76700:19:50.356 : en:00:19:50.35600:27:30.774 : en:00:27:30.77400:33:54.449 : en:00:33:54.44900:40:04.652 : en:00:40:04.65200:43:59.262 : en:00:43:59.26200:49:53.866 : en:00:49:53.86600:55:56.812 : en:00:55:56.81201:02:34.167 : en:01:02:34.16701:09:23.493 : en:01:09:23.49301:10:52.957 : en:01:10:52.957

Скриншоты


_________________
Показать сообщения:    

Текущее время: Сегодня 00:37

Часовой пояс: GMT



Вы не можете начинать темы
Вы не можете отвечать на сообщения
Вы не можете редактировать свои сообщения
Вы не можете удалять свои сообщения
Вы не можете голосовать в опросах
Вы не можете прикреплять файлы к сообщениям
Вы не можете скачивать файлы