Ивановский Торрент трекер
Яндекс.Погода
 

[Цитировать]
HUNTER

| Все релизы мультфильма || BDRip 1080p, 6.05 GB |- P R E S E N T SКот раввина / Le chat du rabbin / The Rabbi's Cat- Страна: Франция, Австрия
Жанр: мультфильм, фэнтези, приключения, комедия, семейный
Продолжительность: 01:30:03
Год выпуска: 2011
Перевод: Авторский (одноголосый закадровый) Андрей Гаврилов
Субтитры: есть-Режиссёр: Антуан Делево / Antoine Delesvaux, Жоанн Сфар / Joann Sfar
Роли озвучивали: Матье Амальрик, Франсуа Дамиенс, Хафсия Херци, Карина Теста, Мохамед Феллаг, Эрик Элмоснино, Дэниэл Коэн, Жан-Пьер Кальфон, Жоанн Сфар, Морис Бенишу, Войцех Пшоняк, Алиса Ури, Паскаль Н'Зонзи, Франсуа Морель, Сава Лолов...- | | -Описание: История о жизни во французском Магрибе (Алжир) начала прошлого века, с его мягкой экзотикой и толерантностью: здесь мирно сосуществовали мусульмане, евреи, христиане. Здесь живет раввин Сфар со своей дочерью, шумным попугаем и озорным котом. И все у них тихо-мирно, но вот однажды кот раввина съедает попугая и... начинает говорить. Причем лжет на каждом шагу, постепенно сводя с ума окружающих. Раввин решает обучить его Торе, а кот настаивает на изучении Кабаллы и просит провести ему бар-мицву. Раввин консультируется с другим раввином, и они решают, что кот не может быть евреем. Но сам кот, как всегда, знает лучше. Доставка посылки из России усложняет ситуацию...-Доп. информация: Спасибо foxlight за исходный Blu-Ray диск из собственной коллекции.
Спасибо adamovnе за русские субтитры к этому мультфильму.
Перевод Андрея Гаврилова осуществлен в январе 2014 г. силами форумов E180 и WIDESCREEN "Кино в Авторском переводе" по заказу: foxlight, xerman13, Multmir, DFCbit, ilgizik01, v1111o, Kastro, фёдор Александрович, luka69, Savely.
Звуковая дорожка с переводом А. Гаврилова получена путем наложения чистого голоса на центральный канал декодированной оригинальной (французской) DTS-HD MA 5.1 дорожки - xfiles.
-Сэмпл/Sample (68.2 MB, 1 минута)-Качество: BDRip 1080p
Формат: MKV
Видео: 1920x1038 (1.850:1), 23,976 fps, ~6595 kbps avg, 0.138 bit/pixel
Аудио #1: Русский, DTS / 5.1 / 48 kHz / 1509 kbps / 16-bit - AVO | Андрей Гаврилов
Аудио #2: French, DTS / 5.1 / 48 kHz / 1509 kbps / 16-bit - Original
Субтитры: Русские (полные - by adamovna), French (Full)
Навигация по главам: есть (16 не именованных глав)

MediaInfo / x264Log

x264Log

raw [info]: 1920x1038p 1:1 @ 24000/1001 fps (cfr)x264 [info]: using SAR=1/1x264 [info]: using cpu capabilities: MMX2 SSE2Fast SSSE3 SSE4.2 AVX XOP FMA4 FMA3 LZCNT BMI1x264 [info]: profile High, level 4.1x264 [info]: frame I:1285 Avg QP:10.50 size:412527 PSNR Mean Y:52.82 U:55.53 V:55.17 Avg:53.47 Global:52.47x264 [info]: frame P:31033 Avg QP:13.88 size: 66124 PSNR Mean Y:50.63 U:53.58 V:53.19 Avg:51.33 Global:50.10x264 [info]: frame B:97224 Avg QP:15.16 size: 19260 PSNR Mean Y:50.39 U:53.74 V:53.33 Avg:51.14 Global:49.62x264 [info]: consecutive B-frames: 2.9% 3.1% 11.6% 35.8% 18.6% 15.7% 3.0% 1.2% 1.2% 2.3% 0.9% 1.0% 2.7%x264 [info]: mb I I16..4: 20.3% 15.0% 64.7%x264 [info]: mb P I16..4: 1.2% 2.8% 3.3% P16..4: 16.6% 7.8% 5.6% 2.2% 0.4% skip:60.1%x264 [info]: mb B I16..4: 0.3% 0.4% 0.4% B16..8: 12.6% 5.3% 1.3% direct: 2.5% skip:77.2% L0:39.7% L1:45.9% BI:14.3%x264 [info]: 8x8 transform intra:30.9% inter:22.6%x264 [info]: coded y,uvDC,uvAC intra: 44.9% 58.7% 55.2% inter: 9.4% 8.1% 3.9%x264 [info]: i16 v,h,dc,p: 73% 16% 7% 4%x264 [info]: i8 v,h,dc,ddl,ddr,vr,hd,vl,hu: 22% 13% 47% 3% 2% 3% 2% 4% 3%x264 [info]: i4 v,h,dc,ddl,ddr,vr,hd,vl,hu: 27% 15% 26% 5% 6% 6% 5% 5% 5%x264 [info]: i8c dc,h,v,p: 39% 37% 21% 4%x264 [info]: Weighted P-Frames: Y:2.0% UV:1.6%x264 [info]: ref P L0: 63.8% 12.4% 16.8% 5.9% 1.1% 0.0%x264 [info]: ref B L0: 82.0% 14.3% 3.6%x264 [info]: ref B L1: 93.0% 7.0%x264 [info]: SSIM Mean Y:0.9968451 (25.010db)x264 [info]: PSNR Mean Y:50.476 U:53.720 V:53.316 Avg:51.210 Global:49.753 kb/s:6595.77encoded 129542 frames, 8.56 fps, 6595.77 kb/s
GeneralUnique ID : 215928760623653445532565548084654724684 (0xA2725DD919E9BD3AB5DFB1C2AE2F564C)Complete name : Le.Chat.Du.Rabbin.2011.BDRip.1080p.dfcbit.mkvFormat : MatroskaFormat version : Version 2File size : 6.05 GiBDuration : 1h 30mnOverall bit rate : 9 617 KbpsEncoded date : UTC 2014-02-06 05:06:42Writing application : mkvmerge v4.0.0 ('The Stars were mine') built on Jun 6 2010 16:18:42Writing library : libebml v1.0.0 + libmatroska v1.0.0
VideoID : 1Format : AVCFormat/Info : Advanced Video CodecFormat profile : High@L4.1Format settings, CABAC : YesFormat settings, ReFrames : 4 framesCodec ID : V_MPEG4/ISO/AVCDuration : 1h 30mnBit rate : 6 595 KbpsWidth : 1 920 pixelsHeight : 1 038 pixelsDisplay aspect ratio : 1.85:1Frame rate mode : ConstantFrame rate : 23.976 fpsColor space : YUVChroma subsampling : 4:2:0Bit depth : 8 bitsScan type : ProgressiveBits/(Pixel*Frame) : 0.138Stream size : 4.14 GiB (67%)Title : NTSC, 1920x1038 (1.850:1), BDRip 1080p - tRuAVC & Multfilmy [DFCbit]Writing library : x264 core 142 r2389kMod 956c8d8Encoding settings : cabac=1 / ref=4 / deblock=1:-3:-3 / analyse=0x3:0x133 / me=umh / subme=11 / psy=1 / fade_compensate=0.00 / psy_rd=0.63:0.00 / mixed_ref=1 / me_range=32 / chroma_me=1 / trellis=2 / 8x8dct=1 / cqm=0 / deadzone=21,11 / fast_pskip=0 / chroma_qp_offset=-2 / threads=12 / lookahead_threads=3 / sliced_threads=0 / nr=0 / decimate=1 / interlaced=0 / bluray_compat=0 / constrained_intra=0 / fgo=0 / bframes=12 / b_pyramid=2 / b_adapt=2 / b_bias=0 / direct=1 / weightb=1 / open_gop=0 / weightp=2 / keyint=250 / keyint_min=23 / scenecut=40 / intra_refresh=0 / rc_lookahead=70 / rc=2pass / mbtree=0 / bitrate=6595 / ratetol=1.0 / qcomp=0.81 / qpmin=0 / qpmax=69 / qpstep=4 / cplxblur=20.0 / qblur=0.5 / vbv_maxrate=50000 / vbv_bufsize=62500 / nal_hrd=none / filler=0 / ip_ratio=1.40 / pb_ratio=1.30 / aq=2:0.90Language : FrenchDefault : YesForced : NoColor primaries : BT.709Transfer characteristics : BT.709Matrix coefficients : BT.709
Audio #1ID : 2Format : DTSFormat/Info : Digital Theater SystemsMode : 16Format settings, Endianness : BigCodec ID : A_DTSDuration : 1h 30mnBit rate mode : ConstantBit rate : 1 509 KbpsChannel(s) : 6 channelsChannel positions : Front: L C R, Side: L R, LFESampling rate : 48.0 KHzBit depth : 16 bitsCompression mode : LossyStream size : 972 MiB (16%)Title : DTS / 5.1 / 48 kHz / 1509 kbps / 16 bit - AVO | Андрей ГавриловLanguage : RussianDefault : YesForced : No
Audio #2ID : 3Format : DTSFormat/Info : Digital Theater SystemsMode : 16Format settings, Endianness : BigCodec ID : A_DTSDuration : 1h 30mnBit rate mode : ConstantBit rate : 1 509 KbpsChannel(s) : 6 channelsChannel positions : Front: L C R, Side: L R, LFESampling rate : 48.0 KHzBit depth : 16 bitsCompression mode : LossyStream size : 972 MiB (16%)Title : DTS / 5.1 / 48 kHz / 1509 kbps / 16 bit - OriginalLanguage : FrenchDefault : NoForced : No
Text #1ID : 4Format : UTF-8Codec ID : S_TEXT/UTF8Codec ID/Info : UTF-8 Plain TextTitle : SRT, Full (by adamovna)Language : RussianDefault : NoForced : No
Text #2ID : 5Format : UTF-8Codec ID : S_TEXT/UTF8Codec ID/Info : UTF-8 Plain TextTitle : SRT, FullLanguage : FrenchDefault : NoForced : No
Menu00:00:00.000 : en:Chapter 100:05:56.523 : en:Chapter 200:07:43.922 : en:Chapter 300:15:01.192 : en:Chapter 400:20:02.701 : en:Chapter 500:25:47.212 : en:Chapter 600:29:29.810 : en:Chapter 700:33:01.271 : en:Chapter 800:39:44.757 : en:Chapter 900:44:44.056 : en:Chapter 1000:50:22.186 : en:Chapter 1100:59:10.297 : en:Chapter 1201:05:05.485 : en:Chapter 1301:12:38.354 : en:Chapter 1401:18:04.597 : en:Chapter 1501:25:07.269 : en:Chapter 16

Скриншоты

Скриншот с названием мультфильма
--BDRip 1080p


Source Blu-Ray

Релиз от групп | and | -Данный релиз не будет воспроизводиться на бытовых плеерах не поддерживающих MKV и H.264 Обсуждение релизов в AVC формате || Свежие AVC рипы
Показать сообщения:    

Текущее время: 20-Сен 17:30

Часовой пояс: UTC - 1


Вы не можете начинать темы
Вы не можете отвечать на сообщения
Вы не можете редактировать свои сообщения
Вы не можете удалять свои сообщения
Вы не можете голосовать в опросах
Вы не можете прикреплять файлы к сообщениям
Вы не можете скачивать файлы

!ВНИМАНИЕ!
Сайт не предоставляет электронные версии произведений, а занимается лишь коллекционированием и каталогизацией ссылок, присылаемых и публикуемых на форуме нашими читателями. Если вы являетесь правообладателем какого-либо представленного материала и не желаете, чтобы ссылка на него находилась в нашем каталоге, свяжитесь с нами, и мы незамедлительно удалим ее. Файлы для обмена на трекере предоставлены пользователями сайта, и администрация не несет ответственности за их содержание. Просьба не заливать файлы, защищенные авторскими правами, а также файлы нелегального содержания!