Важное объявление!
У Нас Все раздачи мультитрекерные, при нуле пиров в релизах, можете смело вставать на закачку!
 
Автор Сообщение

HUNTER

Стаж:
4 года 8 месяцев
Сообщений:
62068

Репутация: 101

[+] [-]
Вне форума [Профиль] [ЛС]


Кот Гром и заколдованный дом
The House of Magic | Le Manoir Magique
-
Страна: Бельгия, Великобритания, Франция | nWave Pictures, Studio Canal International, Anton Capital Entertainment
Жанр: Мультфильм, Семейный
Продолжительность: 1:25:08
Год выпуска: 2013
Перевод: Профессиональный (дублированный) R5
Русские субтитры: нет-Режиссёр: Джереми Дегрусон, Бен Стассен / Jeremy Degruson, Ben Stassen
Роли озвучивали: Nurse Baxter - Синда Адамс, Sr. Jeffrey McDonough - Эдвард Эснер, Kayla - Эмили Блант, Daniel - Грант Джордж, Larry - Юджин Леви, Dimitri - Дэнни Манн, Lenny - Юэн МакГрегор, Randy - Рон Перлман, Jeffrey - Уильям Шетнер, Theodore - Кифер Сазерленд-ОписаниеЛюбопытный рыжий кот попадает в дом старого фокусника и узнает секрет его трюков. Так начинается его знакомство с учеными зверями и живыми игрушками, а также невероятные приключения полные юмора и опасностей.-«Кот Гром и заколдованный дом» (англ. The House of Magic, фр. Le Manoir magique) — полнометражный мультфильм в технике компьютерной 3D-анимации производства Бельгии режиссёров Жереми Дегрюсона и Бена Стассена
Релиз:

Сэмпл

IMDb: 6.30 (3968)
Качество: BDRip 720p KOT_GROM_3D_BLUEBIRD
Формат: MKV
Видео: AVC 3895 Kbps 1280 x 720 (1.778) 23.976 fps
Аудио: AC-3 384 Kbps 6 channels, 48.0 KHz DUB R5
Аудио 2: AC-3 640 Kbps 6 channels, 48.0 KHz Fre
Аудио 3: AC-3 640 Kbps 6 channels, 48.0 KHz Eng
Субтитры: Fre, Eng Srt

MI | Log

Log
x264 [info]: frame I:1184 Avg QP:13.20 size:142379
x264 [info]: frame P:30249 Avg QP:15.05 size: 42884
x264 [info]: frame B:91039 Avg QP:16.93 size: 11992
x264 [info]: consecutive B-frames: 4.0% 3.8% 14.0% 22.3% 10.0% 43.2% 1.5% 0.4% 0.4% 0.2% 0.4%
x264 [info]: mb I I16..4: 6.3% 65.1% 28.6%
x264 [info]: mb P I16..4: 0.9% 13.1% 2.3% P16..4: 25.0% 27.1% 13.3% 3.4% 0.5% skip:14.3%
x264 [info]: mb B I16..4: 0.2% 1.7% 0.3% B16..8: 26.8% 18.5% 3.7% direct: 4.3% skip:44.5% L0:40.3% L1:45.4% BI:14.4%
x264 [info]: 8x8 transform intra:77.6% inter:49.8%
x264 [info]: direct mvs spatial:100.0% temporal:0.0%
x264 [info]: coded y,uvDC,uvAC intra: 85.6% 81.8% 67.5% inter: 17.9% 18.4% 6.6%
x264 [info]: i16 v,h,dc,p: 18% 12% 9% 61%
x264 [info]: i8 v,h,dc,ddl,ddr,vr,hd,vl,hu: 12% 13% 13% 8% 10% 9% 11% 10% 14%
x264 [info]: i4 v,h,dc,ddl,ddr,vr,hd,vl,hu: 13% 12% 8% 8% 14% 12% 13% 9% 12%
x264 [info]: i8c dc,h,v,p: 38% 30% 19% 13%
x264 [info]: Weighted P-Frames: Y:4.2% UV:2.7%
x264 [info]: ref P L0: 56.5% 11.6% 14.6% 5.2% 3.7% 2.8% 2.3% 1.7% 1.4% 0.3% 0.0%
x264 [info]: ref B L0: 79.5% 10.1% 4.5% 2.1% 1.5% 1.2% 0.7% 0.3%
x264 [info]: ref B L1: 93.3% 6.7%
x264 [info]: kb/s:4005.41
x264 [total]: encoded 122472 frames, 7.69 fps, 4005.41 kb/s, duration 4:25:33.18
Format : Matroska
Format version : Version 4 / Version 2
File size : 3.37 GiB
Duration : 1h 25mn
Overall bit rate : 5 672 Kbps
Encoded date : UTC 2016-04-06 16:38:03
Writing application : mkvmerge v6.7.0 ('Back to the Ground') 32bit built on Jan 8 2014 15:03:17
Writing library : libebml v1.3.0 + libmatroska v1.4.1
Video
ID : 1
Format : AVC
Format/Info : Advanced Video Codec
Format profile : High@L4.1
Format settings, CABAC : Yes
Format settings, ReFrames : 9 frames
Codec ID : V_MPEG4/ISO/AVC
Duration : 1h 25mn
Bit rate : 3 895 Kbps
Width : 1 280 pixels
Height : 720 pixels
Display aspect ratio : 16:9
Frame rate mode : Constant
Frame rate : 23.976 (24000/1001) fps
Color space : YUV
Chroma subsampling : 4:2:0
Bit depth : 8 bits
Scan type : Progressive
Bits/(Pixel*Frame) : 0.176
Stream size : 2.32 GiB (69%)
Title : The House of Magic (2013) [rutracker.org] 720p
Writing library : x264 core 148 r2638kMod 7599210
Encoding settings : cabac=1 / ref=9 / deblock=1:-3:-2 / analyse=0x3:0x133 / me=umh / subme=11 / psy=1 / fade_compensate=0.00 / psy_rd=1.00:0.05 / mixed_ref=1 / me_range=48 / chroma_me=1 / trellis=2 / 8x8dct=1 / cqm=0 / deadzone=21,11 / fast_pskip=0 / chroma_qp_offset=-3 / threads=12 / lookahead_threads=3 / sliced_threads=0 / nr=0 / decimate=1 / interlaced=0 / bluray_compat=0 / constrained_intra=0 / fgo=0 / bframes=10 / b_pyramid=2 / b_adapt=2 / b_bias=0 / direct=3 / weightb=1 / open_gop=0 / weightp=2 / keyint=250 / keyint_min=23 / scenecut=40 / intra_refresh=0 / rc_lookahead=60 / rc=crf / mbtree=0 / crf=16.7000 / qcomp=0.60 / qpmin=0 / qpmax=69 / qpstep=4 / vbv_maxrate=50000 / vbv_bufsize=62500 / crf_max=0.0 / nal_hrd=none / filler=0 / ip_ratio=1.40 / pb_ratio=1.30 / aq=3:0.90
Language : French
Default : Yes
Forced : No
Audio #1
ID : 2
Format : AC-3
Format/Info : Audio Coding 3
Mode extension : CM (complete main)
Format settings, Endianness : Big
Codec ID : A_AC3
Duration : 1h 25mn
Bit rate mode : Constant
Bit rate : 384 Kbps
Channel(s) : 6 channels
Channel positions : Front: L C R, Side: L R, LFE
Sampling rate : 48.0 KHz
Frame rate : 31.250 fps (1536 spf)
Compression mode : Lossy
Stream size : 234 MiB (7%)
Title : DUB R5
Language : Russian
Default : Yes
Forced : No
Audio #2
ID : 3
Format : AC-3
Format/Info : Audio Coding 3
Mode extension : CM (complete main)
Format settings, Endianness : Big
Codec ID : A_AC3
Duration : 1h 25mn
Bit rate mode : Constant
Bit rate : 640 Kbps
Channel(s) : 6 channels
Channel positions : Front: L C R, Side: L R, LFE
Sampling rate : 48.0 KHz
Frame rate : 31.250 fps (1536 spf)
Compression mode : Lossy
Stream size : 390 MiB (11%)
Title : Original
Language : French
Default : No
Forced : No
Audio #3
ID : 4
Format : AC-3
Format/Info : Audio Coding 3
Mode extension : CM (complete main)
Format settings, Endianness : Big
Codec ID : A_AC3
Duration : 1h 25mn
Bit rate mode : Constant
Bit rate : 640 Kbps
Channel(s) : 6 channels
Channel positions : Front: L C R, Side: L R, LFE
Sampling rate : 48.0 KHz
Frame rate : 31.250 fps (1536 spf)
Compression mode : Lossy
Stream size : 390 MiB (11%)
Title : Original
Language : English
Default : No
Forced : No
Text #1
ID : 5
Format : UTF-8
Codec ID : S_TEXT/UTF8
Codec ID/Info : UTF-8 Plain Text
Title : Full
Language : French
Default : No
Forced : No
Text #2
ID : 6
Format : UTF-8
Codec ID : S_TEXT/UTF8
Codec ID/Info : UTF-8 Plain Text
Title : Full
Language : English
Default : No
Forced : No
Menu
00:00:00.000 : en:00:00:00.000
00:04:28.768 : en:00:04:28.768
00:10:29.379 : en:00:10:29.379
00:15:52.076 : en:00:15:52.076
00:24:02.775 : en:00:24:02.775
00:31:46.321 : en:00:31:46.321
00:38:20.840 : en:00:38:20.840
00:45:34.148 : en:00:45:34.148
00:53:09.353 : en:00:53:09.353
01:01:10.876 : en:01:01:10.876
01:07:07.148 : en:01:07:07.148
01:17:59.550 : en:01:17:59.550[/pre]

Скриншоты






_________________
Показать сообщения:    

Текущее время: Сегодня 14:03

Часовой пояс: GMT



Вы не можете начинать темы
Вы не можете отвечать на сообщения
Вы не можете редактировать свои сообщения
Вы не можете удалять свои сообщения
Вы не можете голосовать в опросах
Вы не можете прикреплять файлы к сообщениям
Вы не можете скачивать файлы
Наши партнеры: интернет магазин Ивановского трикотажа textilla.ru