Важное объявление!
У Нас Все раздачи мультитрекерные, при нуле пиров в релизах, можете смело вставать на закачку!
Статистика раздачи
Размер:     |    Зарегистрирован:     |    Скачан:     |   
Нет
 
     
 
 
Автор Сообщение

HUNTER

Стаж:
5 лет
Сообщений:
68053

Репутация: 101

[+] [-]
Вне форума [Профиль] [ЛС]


Кот Гром и заколдованный дом
The House of Magic | Le Manoir Magique
-
Страна: Бельгия, Великобритания, Франция | nWave Pictures, Studio Canal International, Anton Capital Entertainment
Жанр: Мультфильм, Семейный
Продолжительность: 1:25:08
Год выпуска: 2013
Перевод: Профессиональный (дублированный) R5
Русские субтитры: нет-Режиссёр: Джереми Дегрусон, Бен Стассен / Jeremy Degruson, Ben Stassen
Роли озвучивали: Nurse Baxter - Синда Адамс, Sr. Jeffrey McDonough - Эдвард Эснер, Kayla - Эмили Блант, Daniel - Грант Джордж, Larry - Юджин Леви, Dimitri - Дэнни Манн, Lenny - Юэн МакГрегор, Randy - Рон Перлман, Jeffrey - Уильям Шетнер, Theodore - Кифер Сазерленд-ОписаниеЛюбопытный рыжий кот попадает в дом старого фокусника и узнает секрет его трюков. Так начинается его знакомство с учеными зверями и живыми игрушками, а также невероятные приключения полные юмора и опасностей.-«Кот Гром и заколдованный дом» (англ. The House of Magic, фр. Le Manoir magique) — полнометражный мультфильм в технике компьютерной 3D-анимации производства Бельгии режиссёров Жереми Дегрюсона и Бена Стассена
Релиз:

Сэмпл

IMDb: 6.30 (3968)
Качество: BDRip-AVC KOT_GROM_3D_BLUEBIRD
Формат: MKV
Видео: AVC 2783 Kbps 1152 x 648 (1.778) 23.976 fps
Аудио: AC-3 384 Kbps 6 channels, 48.0 KHz DUB R5
Аудио 2: AC-3 448 Kbps 6 channels, 48.0 KHz Fre
Аудио 3: AC-3 448 Kbps 6 channels, 48.0 KHz Eng
Субтитры: Fre, Eng Srt

MI | Log

Log
x264 [info]: frame I:1164 Avg QP:14.32 size:111811
x264 [info]: frame P:29901 Avg QP:16.32 size: 31186
x264 [info]: frame B:91407 Avg QP:18.59 size: 8377
x264 [info]: consecutive B-frames: 3.8% 3.6% 14.0% 22.1% 11.4% 39.5% 2.0% 2.2% 0.4% 0.3% 0.1% 0.2% 0.4%
x264 [info]: mb I I16..4: 6.6% 63.0% 30.4%
x264 [info]: mb P I16..4: 1.0% 11.6% 2.5% P16..4: 25.6% 27.2% 12.2% 3.0% 0.5% skip:16.5%
x264 [info]: mb B I16..4: 0.2% 1.4% 0.3% B16..8: 26.4% 16.1% 3.0% direct: 3.3% skip:49.3% L0:39.2% L1:46.9% BI:13.8%
x264 [info]: 8x8 transform intra:74.3% inter:52.6%
x264 [info]: direct mvs spatial:100.0% temporal:0.0%
x264 [info]: coded y,uvDC,uvAC intra: 83.9% 81.5% 67.1% inter: 15.1% 14.9% 5.5%
x264 [info]: i16 v,h,dc,p: 17% 14% 8% 61%
x264 [info]: i8 v,h,dc,ddl,ddr,vr,hd,vl,hu: 13% 12% 10% 8% 10% 10% 12% 11% 15%
x264 [info]: i4 v,h,dc,ddl,ddr,vr,hd,vl,hu: 16% 12% 7% 7% 13% 12% 12% 9% 12%
x264 [info]: i8c dc,h,v,p: 36% 31% 19% 14%
x264 [info]: Weighted P-Frames: Y:4.2% UV:2.9%
x264 [info]: ref P L0: 55.8% 12.1% 14.2% 4.9% 3.5% 2.7% 2.1% 1.3% 1.1% 1.0% 1.0% 0.2% 0.0%
x264 [info]: ref B L0: 79.2% 9.6% 4.4% 2.0% 1.5% 1.2% 1.0% 0.6% 0.4% 0.2%
x264 [info]: ref B L1: 93.0% 7.0%
x264 [info]: kb/s:2863.50
x264 [total]: encoded 122472 frames, 8.71 fps, 2863.50 kb/s, duration 3:54:28.12
Format : Matroska
Format version : Version 4 / Version 2
File size : 2.47 GiB
Duration : 1h 25mn
Overall bit rate : 4 146 Kbps
Encoded date : UTC 2016-04-05 20:03:21
Writing application : mkvmerge v6.7.0 ('Back to the Ground') 32bit built on Jan 8 2014 15:03:17
Writing library : libebml v1.3.0 + libmatroska v1.4.1
Video
ID : 1
Format : AVC
Format/Info : Advanced Video Codec
Format profile : High@L4.1
Format settings, CABAC : Yes
Format settings, ReFrames : 11 frames
Codec ID : V_MPEG4/ISO/AVC
Duration : 1h 25mn
Bit rate : 2 783 Kbps
Width : 1 152 pixels
Height : 648 pixels
Display aspect ratio : 16:9
Frame rate mode : Constant
Frame rate : 23.976 (24000/1001) fps
Color space : YUV
Chroma subsampling : 4:2:0
Bit depth : 8 bits
Scan type : Progressive
Bits/(Pixel*Frame) : 0.156
Stream size : 1.66 GiB (67%)
Title : The House of Magic (2013) [rutracker.org]
Writing library : x264 core 146 r2538kMod 121396c
Encoding settings : cabac=1 / ref=11 / deblock=1:-2:-1 / analyse=0x3:0x133 / me=umh / subme=11 / psy=1 / fade_compensate=0.00 / psy_rd=1.00:0.05 / mixed_ref=1 / me_range=32 / chroma_me=1 / trellis=2 / 8x8dct=1 / cqm=0 / deadzone=21,11 / fast_pskip=0 / chroma_qp_offset=-3 / threads=12 / lookahead_threads=3 / sliced_threads=0 / nr=0 / decimate=1 / interlaced=0 / bluray_compat=0 / constrained_intra=0 / fgo=0 / bframes=12 / b_pyramid=2 / b_adapt=2 / b_bias=0 / direct=3 / weightb=1 / open_gop=0 / weightp=2 / keyint=250 / keyint_min=23 / scenecut=40 / intra_refresh=0 / rc_lookahead=80 / rc=crf / mbtree=0 / crf=17.5000 / qcomp=0.60 / qpmin=0 / qpmax=69 / qpstep=4 / vbv_maxrate=50000 / vbv_bufsize=62500 / crf_max=0.0 / nal_hrd=none / filler=0 / ip_ratio=1.40 / pb_ratio=1.30 / aq=3:0.90
Language : French
Default : Yes
Forced : No
Audio #1
ID : 2
Format : AC-3
Format/Info : Audio Coding 3
Mode extension : CM (complete main)
Format settings, Endianness : Big
Codec ID : A_AC3
Duration : 1h 25mn
Bit rate mode : Constant
Bit rate : 384 Kbps
Channel(s) : 6 channels
Channel positions : Front: L C R, Side: L R, LFE
Sampling rate : 48.0 KHz
Frame rate : 31.250 fps (1536 spf)
Compression mode : Lossy
Stream size : 234 MiB (9%)
Title : DUB
Language : Russian
Default : Yes
Forced : No
Audio #2
ID : 3
Format : AC-3
Format/Info : Audio Coding 3
Mode extension : CM (complete main)
Format settings, Endianness : Big
Codec ID : A_AC3
Duration : 1h 25mn
Bit rate mode : Constant
Bit rate : 448 Kbps
Channel(s) : 6 channels
Channel positions : Front: L C R, Side: L R, LFE
Sampling rate : 48.0 KHz
Frame rate : 31.250 fps (1536 spf)
Compression mode : Lossy
Stream size : 273 MiB (11%)
Title : Original
Language : French
Default : No
Forced : No
Audio #3
ID : 4
Format : AC-3
Format/Info : Audio Coding 3
Mode extension : CM (complete main)
Format settings, Endianness : Big
Codec ID : A_AC3
Duration : 1h 25mn
Bit rate mode : Constant
Bit rate : 448 Kbps
Channel(s) : 6 channels
Channel positions : Front: L C R, Side: L R, LFE
Sampling rate : 48.0 KHz
Frame rate : 31.250 fps (1536 spf)
Compression mode : Lossy
Stream size : 273 MiB (11%)
Title : Original
Language : English
Default : No
Forced : No
Text #1
ID : 5
Format : UTF-8
Codec ID : S_TEXT/UTF8
Codec ID/Info : UTF-8 Plain Text
Title : Full
Language : French
Default : No
Forced : No
Text #2
ID : 6
Format : UTF-8
Codec ID : S_TEXT/UTF8
Codec ID/Info : UTF-8 Plain Text
Title : Full
Language : English
Default : No
Forced : No
Menu
00:00:00.000 : en:00:00:00.000
00:04:28.768 : en:00:04:28.768
00:10:29.379 : en:00:10:29.379
00:15:52.076 : en:00:15:52.076
00:24:02.775 : en:00:24:02.775
00:31:46.321 : en:00:31:46.321
00:38:20.840 : en:00:38:20.840
00:45:34.148 : en:00:45:34.148
00:53:09.353 : en:00:53:09.353
01:01:10.876 : en:01:01:10.876
01:07:07.148 : en:01:07:07.148
01:17:59.550 : en:01:17:59.550[/pre]

Скриншоты





_________________
Показать сообщения:    

Текущее время: Сегодня 06:55

Часовой пояс: GMT



Вы не можете начинать темы
Вы не можете отвечать на сообщения
Вы не можете редактировать свои сообщения
Вы не можете удалять свои сообщения
Вы не можете голосовать в опросах
Вы не можете прикреплять файлы к сообщениям
Вы не можете скачивать файлы